[4K电影] 天师斗僵尸[繁体中字] / Fright Night (1985) 4K高清版本下载

[复制链接]

2333

主题

2482

帖子

1万

积分

超级版主

Rank: 8Rank: 8

积分
17979
 楼主| 发表于 2022-9-17 09:57:11 | 显示全部楼层 |阅读模式
QQ图片20220917094631_副本.png

◎标  题 天师斗僵尸
◎片  名 Fright Night
◎年  代 1985
◎产  地 美国
◎类  别 喜剧 / 惊悚 / 恐怖
◎语  言 英语
◎上映日期 1985-08-02
◎IMDb评分 7.0/10 from 70001 users
◎IMDb链接 https://www.imdb.com/title/tt0089175/
◎豆瓣评分 6.6/10 from 1007 users
◎豆瓣链接 https://movie.douban.com/subject/1295190/
◎片  长 106 分钟
◎导  演 汤姆·霍兰德 Tom Holland
◎编  剧 汤姆·霍兰德 Tom Holland
◎演  员 克里斯·萨兰登 Chris Sarandon
       威廉·罗格斯戴尔 William Ragsdale
       阿曼达·比尔斯 Amanda Bearse
       罗迪·麦克道尔 Roddy McDowall
       斯蒂芬·杰弗里斯 Stephen Geoffreys
       Jonathan Stark Jonathan Stark


◎简  介

    吸血鬼狂热爱好者查理•布莱维斯特(William Ragsdale 饰)最大的爱好就是在深夜看恐怖电影。某晚,他隔壁的空房子里来了两个不速之客,根据多年观看恐怖片的经验,查理断定这两个人一定是吸血鬼。然而无论是警察,还是好友女友,没有一个人相信他的说辞。   万般无奈之下,查理只能请来恐怖电视节目“颤栗之夜”的主持人皮特•文森特(Roddy McDowell 饰)。虽然文森特质疑查理的说法,但看在钱的份上他还是前来调查。面对纠缠不休的查理,吸血鬼杰瑞(Chris Sarandon 饰)该如何对付呢?

Video
ID : 1
Format : HEVC
Format/Info : High Efficiency Video Coding
Format profile : Main 10@L5@High
HDR format : Dolby Vision, Version 1.0, dvhe.05.06, BL+RPU
Codec ID : V_MPEGH/ISO/HEVC
Duration : 1 h 46 min
Bit rate : 24.9 Mb/s
Width : 3 840 pixels
Height : 1 592 pixels
Display aspect ratio : 2.40:1
Frame rate mode : Constant
Frame rate : 23.976 (24000/1001) FPS
Color space : YUV
Chroma subsampling : 4:2:0
Bit depth : 10 bits
Bits/(Pixel*Frame) : 0.170
Stream size : 18.5 GiB (82%)
Default : Yes
Forced : No

Audio #1
ID : 2
Format : DTS XLL
Format/Info : Digital Theater Systems
Commercial name : DTS-HD Master Audio
Codec ID : A_DTS
Duration : 1 h 46 min
Bit rate mode : Variable
Bit rate : 3 793 kb/s
Channel(s) : 6 channels
Channel layout : C L R Ls Rs LFE
Sampling rate : 48.0 kHz
Frame rate : 93.750 FPS (512 SPF)
Bit depth : 24 bits
Compression mode : Lossless
Delay relative to video : 1 s 0 ms
Stream size : 2.82 GiB (13%)
Title : DTS-HD MA 5.1
Language : English
Default : Yes
Forced : No

Audio #2
ID : 3
Format : AC-3
Format/Info : Audio Coding 3
Commercial name : Dolby Digital
Codec ID : A_AC3
Duration : 1 h 46 min
Bit rate mode : Constant
Bit rate : 384 kb/s
Channel(s) : 6 channels
Channel layout : L R C LFE Ls Rs
Sampling rate : 48.0 kHz
Frame rate : 31.250 FPS (1536 SPF)
Compression mode : Lossy
Stream size : 292 MiB (1%)
Title : DD 5.1
Language : English
Service kind : Complete Main
Default : No
Forced : No

Audio #3
ID : 4
Format : AC-3
Format/Info : Audio Coding 3
Commercial name : Dolby Digital
Codec ID : A_AC3
Duration : 1 h 46 min
Bit rate mode : Constant
Bit rate : 448 kb/s
Channel(s) : 2 channels
Channel layout : L R
Sampling rate : 48.0 kHz
Frame rate : 31.250 FPS (1536 SPF)
Compression mode : Lossy
Delay relative to video : 1 s 0 ms
Stream size : 341 MiB (1%)
Title : Commentary by Writer/Director Tom Holland, Actors Chris Sarandon and Jonathan Stark, moderated by Filmmaker Tim Sullivan
Language : English
Service kind : Complete Main
Default : No
Forced : No

Audio #4
ID : 5
Format : AC-3
Format/Info : Audio Coding 3
Commercial name : Dolby Digital
Codec ID : A_AC3
Duration : 1 h 46 min
Bit rate mode : Constant
Bit rate : 448 kb/s
Channel(s) : 2 channels
Channel layout : L R
Sampling rate : 48.0 kHz
Frame rate : 31.250 FPS (1536 SPF)
Compression mode : Lossy
Delay relative to video : 1 s 0 ms
Stream size : 341 MiB (1%)
Title : Commentary by Writer/Director Tom Holland, Actors William Ragsdale and Stephen Geoffreys, FX Artist Randall Cook, moderated by Journalist Jeremy Smith and Filmmaker Tim Sullivan
Language : English
Service kind : Complete Main
Default : No
Forced : No

Text #1
ID : 6
Format : UTF-8
Codec ID : S_TEXT/UTF8
Codec ID/Info : UTF-8 Plain Text
Duration : 1 h 45 min
Bit rate : 36 b/s
Frame rate : 0.157 FPS
Count of elements : 999
Stream size : 27.9 KiB (0%)
Language : English
Default : Yes
Forced : No

Text #2
ID : 7
Format : UTF-8
Codec ID : S_TEXT/UTF8
Codec ID/Info : UTF-8 Plain Text
Duration : 1 h 46 min
Bit rate : 40 b/s
Frame rate : 0.187 FPS
Count of elements : 1189
Stream size : 31.5 KiB (0%)
Title : SDH
Language : English
Default : No
Forced : No

Text #3
ID : 8
Format : PGS
Muxing mode : zlib
Codec ID : S_HDMV/PGS
Codec ID/Info : Picture based subtitle format used on BDs/HD-DVDs
Duration : 1 h 42 min
Bit rate : 20.3 kb/s
Frame rate : 0.303 FPS
Count of elements : 1865
Stream size : 14.9 MiB (0%)
Title : English
Language : English
Default : No
Forced : No

Text #4
ID : 9
Format : PGS
Muxing mode : zlib
Codec ID : S_HDMV/PGS
Codec ID/Info : Picture based subtitle format used on BDs/HD-DVDs
Duration : 1 h 46 min
Bit rate : 22.9 kb/s
Frame rate : 0.400 FPS
Count of elements : 2542
Stream size : 17.4 MiB (0%)
Title : English (SDH)
Language : English
Default : No
Forced : No

Text #5
ID : 10
Format : PGS
Muxing mode : zlib
Codec ID : S_HDMV/PGS
Codec ID/Info : Picture based subtitle format used on BDs/HD-DVDs
Duration : 1 h 42 min
Bit rate : 12.3 kb/s
Frame rate : 0.282 FPS
Count of elements : 1730
Stream size : 8.97 MiB (0%)
Title : Arabic
Language : Arabic
Default : No
Forced : No

Text #6
ID : 11
Format : PGS
Muxing mode : zlib
Codec ID : S_HDMV/PGS
Codec ID/Info : Picture based subtitle format used on BDs/HD-DVDs
Duration : 1 h 42 min
Bit rate : 20.1 kb/s
Frame rate : 0.282 FPS
Count of elements : 1736
Stream size : 14.7 MiB (0%)
Title : Bulgarian
Language : Bulgarian
Default : No
Forced : No

Text #7
ID : 12
Format : PGS
Muxing mode : zlib
Codec ID : S_HDMV/PGS
Codec ID/Info : Picture based subtitle format used on BDs/HD-DVDs
Duration : 1 h 42 min
Bit rate : 17.2 kb/s
Frame rate : 0.213 FPS
Count of elements : 1310
Stream size : 12.6 MiB (0%)
Title : 中文(繁体)
Language : 中文
Default : No
Forced : No


Text #8
ID : 13
Format : PGS
Muxing mode : zlib
Codec ID : S_HDMV/PGS
Codec ID/Info : Picture based subtitle format used on BDs/HD-DVDs
Duration : 1 h 42 min
Bit rate : 20.9 kb/s
Frame rate : 0.300 FPS
Count of elements : 1843
Stream size : 15.3 MiB (0%)
Title : Czech
Language : Czech
Default : No
Forced : No

Text #9
ID : 14
Format : PGS
Muxing mode : zlib
Codec ID : S_HDMV/PGS
Codec ID/Info : Picture based subtitle format used on BDs/HD-DVDs
Duration : 1 h 42 min
Bit rate : 20.3 kb/s
Frame rate : 0.282 FPS
Count of elements : 1736
Stream size : 14.9 MiB (0%)
Title : Danish
Language : Danish
Default : No
Forced : No

Text #10
ID : 15
Format : PGS
Muxing mode : zlib
Codec ID : S_HDMV/PGS
Codec ID/Info : Picture based subtitle format used on BDs/HD-DVDs
Duration : 1 h 42 min
Bit rate : 18.3 kb/s
Frame rate : 0.280 FPS
Count of elements : 1725
Stream size : 13.4 MiB (0%)
Title : Dutch
Language : Dutch
Default : No
Forced : No

Text #11
ID : 16
Format : PGS
Muxing mode : zlib
Codec ID : S_HDMV/PGS
Codec ID/Info : Picture based subtitle format used on BDs/HD-DVDs
Duration : 1 h 42 min
Bit rate : 18.2 kb/s
Frame rate : 0.281 FPS
Count of elements : 1730
Stream size : 13.3 MiB (0%)
Title : Finnish
Language : Finnish
Default : No
Forced : No

Text #12
ID : 17
Format : PGS
Muxing mode : zlib
Codec ID : S_HDMV/PGS
Codec ID/Info : Picture based subtitle format used on BDs/HD-DVDs
Duration : 1 h 45 min
Bit rate : 19.1 kb/s
Frame rate : 0.263 FPS
Count of elements : 1672
Stream size : 14.4 MiB (0%)
Title : French
Language : French
Default : No
Forced : No

Text #13
ID : 18
Format : PGS
Muxing mode : zlib
Codec ID : S_HDMV/PGS
Codec ID/Info : Picture based subtitle format used on BDs/HD-DVDs
Duration : 1 h 42 min
Bit rate : 23.0 kb/s
Frame rate : 0.282 FPS
Count of elements : 1732
Stream size : 16.9 MiB (0%)
Title : German
Language : German
Default : No
Forced : No

Text #14
ID : 19
Format : PGS
Muxing mode : zlib
Codec ID : S_HDMV/PGS
Codec ID/Info : Picture based subtitle format used on BDs/HD-DVDs
Duration : 1 h 42 min
Bit rate : 20.4 kb/s
Frame rate : 0.302 FPS
Count of elements : 1857
Stream size : 14.9 MiB (0%)
Title : Greek
Language : Greek
Default : No
Forced : No

Text #15
ID : 20
Format : PGS
Muxing mode : zlib
Codec ID : S_HDMV/PGS
Codec ID/Info : Picture based subtitle format used on BDs/HD-DVDs
Duration : 1 h 42 min
Bit rate : 14.8 kb/s
Frame rate : 0.281 FPS
Count of elements : 1730
Stream size : 10.8 MiB (0%)
Title : Hebrew
Language : Hebrew
Default : No
Forced : No

Text #16
ID : 21
Format : PGS
Muxing mode : zlib
Codec ID : S_HDMV/PGS
Codec ID/Info : Picture based subtitle format used on BDs/HD-DVDs
Duration : 1 h 42 min
Bit rate : 19.6 kb/s
Frame rate : 0.281 FPS
Count of elements : 1730
Stream size : 14.4 MiB (0%)
Title : Hungarian
Language : Hungarian
Default : No
Forced : No

Text #17
ID : 22
Format : PGS
Muxing mode : zlib
Codec ID : S_HDMV/PGS
Codec ID/Info : Picture based subtitle format used on BDs/HD-DVDs
Duration : 1 h 42 min
Bit rate : 19.8 kb/s
Frame rate : 0.281 FPS
Count of elements : 1730
Stream size : 14.5 MiB (0%)
Title : Icelandic
Language : Icelandic
Default : No
Forced : No

Text #18
ID : 23
Format : PGS
Muxing mode : zlib
Codec ID : S_HDMV/PGS
Codec ID/Info : Picture based subtitle format used on BDs/HD-DVDs
Duration : 1 h 42 min
Bit rate : 19.6 kb/s
Frame rate : 0.282 FPS
Count of elements : 1734
Stream size : 14.3 MiB (0%)
Title : Italian
Language : Italian
Default : No
Forced : No

Text #19
ID : 24
Format : PGS
Muxing mode : zlib
Codec ID : S_HDMV/PGS
Codec ID/Info : Picture based subtitle format used on BDs/HD-DVDs
Duration : 1 h 42 min
Bit rate : 14.4 kb/s
Frame rate : 0.248 FPS
Count of elements : 1528
Stream size : 10.6 MiB (0%)
Title : Japanese
Language : Japanese
Default : No
Forced : No

Text #20
ID : 25
Format : PGS
Muxing mode : zlib
Codec ID : S_HDMV/PGS
Codec ID/Info : Picture based subtitle format used on BDs/HD-DVDs
Duration : 1 h 42 min
Bit rate : 13.0 kb/s
Frame rate : 0.302 FPS
Count of elements : 1859
Stream size : 9.55 MiB (0%)
Title : Korean
Language : Korean
Default : No
Forced : No

Text #21
ID : 26
Format : PGS
Muxing mode : zlib
Codec ID : S_HDMV/PGS
Codec ID/Info : Picture based subtitle format used on BDs/HD-DVDs
Duration : 1 h 42 min
Bit rate : 20.3 kb/s
Frame rate : 0.282 FPS
Count of elements : 1732
Stream size : 14.9 MiB (0%)
Title : Norwegian
Language : Norwegian
Default : No
Forced : No

Text #22
ID : 27
Format : PGS
Muxing mode : zlib
Codec ID : S_HDMV/PGS
Codec ID/Info : Picture based subtitle format used on BDs/HD-DVDs
Duration : 1 h 42 min
Bit rate : 19.0 kb/s
Frame rate : 0.282 FPS
Count of elements : 1732
Stream size : 13.9 MiB (0%)
Title : Polish
Language : Polish
Default : No
Forced : No

Text #23
ID : 28
Format : PGS
Muxing mode : zlib
Codec ID : S_HDMV/PGS
Codec ID/Info : Picture based subtitle format used on BDs/HD-DVDs
Duration : 1 h 42 min
Bit rate : 18.0 kb/s
Frame rate : 0.224 FPS
Count of elements : 1376
Stream size : 13.2 MiB (0%)
Title : Portuguese (Brazilian)
Language : Portuguese
Default : No
Forced : No

Text #24
ID : 29
Format : PGS
Muxing mode : zlib
Codec ID : S_HDMV/PGS
Codec ID/Info : Picture based subtitle format used on BDs/HD-DVDs
Duration : 1 h 42 min
Bit rate : 20.0 kb/s
Frame rate : 0.282 FPS
Count of elements : 1734
Stream size : 14.6 MiB (0%)
Title : Portuguese (Iberian)
Language : Portuguese
Default : No
Forced : No

Text #25
ID : 30
Format : PGS
Muxing mode : zlib
Codec ID : S_HDMV/PGS
Codec ID/Info : Picture based subtitle format used on BDs/HD-DVDs
Duration : 1 h 45 min
Bit rate : 19.4 kb/s
Frame rate : 0.277 FPS
Count of elements : 1758
Stream size : 14.7 MiB (0%)
Title : Spanish (Latin American)
Language : Spanish
Default : No
Forced : No

Text #26
ID : 31
Format : PGS
Muxing mode : zlib
Codec ID : S_HDMV/PGS
Codec ID/Info : Picture based subtitle format used on BDs/HD-DVDs
Duration : 1 h 45 min
Bit rate : 16.4 kb/s
Frame rate : 0.273 FPS
Count of elements : 1734
Stream size : 12.4 MiB (0%)
Title : Swedish
Language : Swedish
Default : No
Forced : No

Text #27
ID : 32
Format : PGS
Muxing mode : zlib
Codec ID : S_HDMV/PGS
Codec ID/Info : Picture based subtitle format used on BDs/HD-DVDs
Duration : 1 h 42 min
Bit rate : 21.0 kb/s
Frame rate : 0.284 FPS
Count of elements : 1744
Stream size : 15.4 MiB (0%)
Title : Turkish
Language : Turkish
Default : No
Forced : No

Menu
00:00:00.000 : en:Credits
00:03:31.033 : eneter Vincent
00:15:00.100 : en:Body Disposal
00:17:26.834 : enetective Lennox
00:20:53.301 : en:Evil Ed's Advice
00:22:51.635 : en:Invited In
00:27:30.369 : en:Given a Choice
00:32:36.803 : en:A Call From Jerry
00:40:17.470 : en:Recruiting Mr. Vincent
00:44:55.970 : en:At the Lair
00:48:22.637 : en:Holy Water Test
00:51:29.505 : en:Moment of Non-Reflection
00:55:16.805 : en:Evil Is as Evil Does
00:58:26.962 : enursued
00:59:37.606 : en:Evil Ed Gets Cross
01:01:29.273 : en:Calling Peter Vincent
01:03:35.607 : en:Seducing Amy
01:07:01.441 : enanic at Club Radio
01:08:34.275 : en:At Peter's Apartment
01:10:46.475 : en:Amy & Jerry
01:17:37.942 : en:The Cross Test
01:19:01.009 : en:Checking on Mrs. B
01:20:22.610 : eneter and the Wolf
01:27:10.944 : en:On the Staircase
01:33:37.278 : en:Bat Out of Hell
01:34:45.278 : en:In the Basement
01:37:20.478 : en:Stake Out
01:38:04.678 : en:Shedding Some Light


资源速度为零或资源敏感被和谐时,推荐使用qBittorrent等下载软件,有条件的推荐115更好的下载软件!

下载地址:


游客,如果您要查看本帖隐藏内容请回复

游客,如果您要查看本帖隐藏内容请回复

游客,如果您要查看本帖隐藏内容请回复

游客,如果您要查看本帖隐藏内容请回复





上一篇:复生 / Resurrection (2022) 4K高清版本下载
下一篇:沙地传奇[简繁中字] / The Sandlot (1993) 4K高清版本下载
回复

使用道具 举报

3

主题

1409

帖子

4069

积分

4K家园VIP

Rank: 9Rank: 9Rank: 9

积分
4069
发表于 2022-9-17 09:57:19 | 显示全部楼层
撸过
回复 支持 反对

使用道具 举报

1

主题

1173

帖子

3539

积分

4K家园VIP

Rank: 9Rank: 9Rank: 9

积分
3539
发表于 2022-9-19 11:20:12 | 显示全部楼层
4K应该不错,我也下个看看
回复 支持 反对

使用道具 举报

41

主题

1543

帖子

4461

积分

4K家园VIP

Rank: 9Rank: 9Rank: 9

积分
4461
发表于 2022-9-20 23:30:21 | 显示全部楼层
我是个凑数的。。。
回复 支持 反对

使用道具 举报

52

主题

1491

帖子

4303

积分

4K家园VIP

Rank: 9Rank: 9Rank: 9

积分
4303
发表于 2022-9-22 16:05:01 | 显示全部楼层
支持下楼主,顶一个
回复 支持 反对

使用道具 举报

1

主题

1760

帖子

4888

积分

4K家园VIP

Rank: 9Rank: 9Rank: 9

积分
4888
发表于 前天 09:07 | 显示全部楼层
佩服佩服!
回复 支持 反对

使用道具 举报

您需要登录后才可以回帖 登录 | 立即注册

本版积分规则

精彩图文
Archiver|手机版|TAG|Sitemap|新帖|专题|联系我们:邮箱: 4kjia.com@gmail.com   

4k家园   ©2019