[4K UHD 蓝光原盘] 星际迷航 / Star Trek (2009) 4K蓝光REMUX版本下载

[复制链接]

1914

主题

2003

帖子

2万

积分

超级版主

Rank: 8Rank: 8

积分
20445
 楼主| 发表于 2022-9-17 13:15:56 | 显示全部楼层 |阅读模式
本帖最后由 没完没了 于 2022-9-17 21:45 编辑

QQ图片20220917104659_副本.png

◎译  名 星际迷航/星空奇遇记(港)/星际争霸战(台)/星际迷航11:开启未来/星际迷航11/星际旅行11/星舰奇航记11/星舰迷航记11/Star Trek XI/Star Trek 11
◎片  名 Star Trek
◎年  代 2009
◎产  地 美国/德国
◎类  别 动作/科幻/冒险
◎语  言 英语
◎上映日期 2009-05-15(中国大陆)/2009-05-08(美国)
◎IMDb评分  7.9/10 from 602145 users
◎IMDb链接  https://www.imdb.com/title/tt0796366/
◎豆瓣评分 8.1/10 from 161365 users
◎豆瓣链接 https://movie.douban.com/subject/2132932/
◎导  演 J·J·艾布拉姆斯 J.J. Abrams
◎编  剧 罗伯托·奥奇 Roberto Orci / 艾里克斯·库兹曼 Alex Kurtzman / 吉恩·罗登贝瑞 Gene Roddenberry
◎主  演 克里斯·派恩 Chris Pine
       扎克瑞·昆图 Zachary Quinto
       伦纳德·尼莫伊 Leonard Nimoy
       艾瑞克·巴纳 Eric Bana
       布鲁斯·格林伍德 Bruce Greenwood
       卡尔·厄本 Karl Urban
       佐伊·索尔达娜 Zoe Saldana
       西蒙·佩吉 Simon Pegg
       约翰·赵 John Cho
       安东·叶利钦 Anton Yelchin
       本·克劳斯 Ben Cross
       薇诺娜·瑞德 Winona Ryder
       克里斯·海姆斯沃斯 Chris Hemsworth
       詹妮弗·莫里森 Jennifer Morrison
       亚历克斯·内维尔 Alex Nevil
       阿齐瓦·高斯曼 Akiva Goldsman
       丽萨·维达尔 Lisa Vidal
       Jeffrey Byron Jeffrey Byron
       鲍勃·克莱德宁 Bob Clendenin
       道格拉斯·泰特 Douglas Tait
       Tony Guma Tony Guma
       马库斯·杨 Marcus Young
       贾森·马修·史密斯 Jason Matthew Smith
       苏芙·布莱德肖 Sufe Bradshaw
       杰夫·蔡斯 Jeff Chase
       Charles Haugk Charles Haugk
       弗雷达·福斯·沈 Freda Foh Shen
       Darlena Tejeiro Darlena Tejeiro
       玛戈特·法利 Margot Farley
       阿曼达·弗尔曼 Amanda Foreman
       爱丽丝·伊芙 Alice Eve
       卡尔文·迪恩 Calvin Dean
       兰迪·波许 Randy Pausch
       格雷戈·格伦伯格 Greg Grunberg
       安娜·卡塔莉娜 Anna Katarina
       马克·布拉姆霍尔 Mark Bramhall
       洛伦佐·詹姆斯·亨里 Lorenzo James Henrie
       杰罗米菲茨杰罗德 Jeremy Fitzgerald
       斯宾塞·丹尼尔斯 Spencer Daniels
       泰勒·派瑞 Tyler Perry
       雷吉·李 Reggie Lee
       迪普·罗伊 Deep Roy
       比利·布朗 Billy Brown
       马尔塔·马丁 Márta Martin
       索妮塔·亨利 Sonita Henry
       蒂姆·格里芬 Tim Griffin
       科迪·克洛普 Cody Klop
       吉米·本内特 Jimmy Bennett
       保罗·麦克吉莱恩 Paul McGillion
       比利·布朗 Billy Brown
       东尼·艾略斯 Tony Elias
       小克利夫顿·克林斯 Clifton Collins Jr.
       法兰·塔希尔 Faran Tahir
       瑞秋·尼科尔斯 Rachel Nichols
       雅各布·柯冈 Jacob Kogan


◎简  介


  故事发生在的二十三世纪,人类的科技发展已经到达了可以星际旅行的地步。
  2230年出生于瓦肯星的男孩史波克(扎克瑞·昆图 Zachary Quinto 饰),因为母亲阿曼达·格雷森(薇诺娜·赖德 Winona Ryder 饰)是人类,经常遭到同僚的嘲笑和欺负。父亲萨瑞克(本·克劳斯 Ben Cross 饰)是瓦肯星的一名外交官,史波克从小就不断地在严肃的瓦肯逻辑教育和他的人类情感之间挣扎。长大后的史波克遇到了同样怀着远大志向的柯克(克里斯·派恩 Chris Pine 饰),两人虽矛盾不断但通过种种任务考验逐渐开始互相理解。
  企业号的老舰长是克里斯托弗·派克(布鲁斯·格林伍德 Bruce Greenwood 饰),舰员则包括医疗官“老骨头”麦考伊(卡尔·厄本 Karl Urban 饰)、总工程师史考特(西蒙·佩吉 Simon Pegg 饰)、通讯官乌瑚拉(佐伊·桑塔纳 Zoe Saldana 饰)、舵手苏鲁(约翰·周 John Cho 饰),以及17岁的领航员——天才少年契柯夫(安东·尤金 Anton Yelchin 饰)。而来自未来的老年史波克(伦纳德·尼莫伊 Leonard Nimoy 饰)因穿越时空,告诉了柯克未来罗慕伦帝国的残余势力尼诺(艾瑞克·巴纳 Eric Bana 饰)也已经回到现在,并率领大队人马进行复仇,尼诺摧毁了史波克的家乡瓦肯星,下一个目标便是地球……
  本片荣获第82届奥斯卡最佳化妆奖。
  【媒体评价】
  30年来最令人兴奋的星际迷航电影,它标志着柯克船长新传奇的开始,如果接下来的续集敢于保持这一部的快节奏风格,必将成为未来几年最不可忽视的票房炸弹。——《帝国》
  自《星际迷航2:可汗之怒》之后最棒的一部,在视听上的震撼也远远超过它的时代。——CinemaBlend.com
  JJ·艾布拉姆斯成功地让一个正在被人遗忘的经典系列起死回生,尽管新的《星际迷航》没有它前辈的深遽,但依然可以凭借其无穷的活力感动观众。——Dark Horizons
  影片令人振奋,不仅仅成就了该系列最为精彩的时刻,毫无疑问也是科幻电影史上浓墨重彩的一笔。——《The Australian》

◎获奖情况

  第82届奥斯卡金像奖(2010)
  最佳视觉效果(提名)
  最佳混音(提名)
  最佳音效剪辑(提名)
  最佳化妆

  第19届MTV电影奖(2010)
  MTV电影奖 突破表演奖(提名)

  第8届华盛顿影评人协会奖(2009)
  最佳群戏(提名)
  最佳艺术指导(提名)

  第9届凤凰城影评人协会奖(2009)
  最佳特技表演

  第11届美国青少年选择奖(2009)
  最佳动作冒险电影(提名)
  最佳动作冒险电影女演员(提名)
  最佳电影反派(提名)
  Choice Movie Fresh Face Male(提名)
  最佳银幕大战(提名)
  最佳暑期动作冒险电影(提名)

Video
ID : 1
ID in the original source medium : 4113 (0x1011)
Format : HEVC
Format/Info : High Efficiency Video Coding
Format profile : Main 10@L5.1@High
HDR format : SMPTE ST 2086, HDR10 compatible
Codec ID : V_MPEGH/ISO/HEVC
Duration : 2 h 6 min
Bit rate : 53.0 Mb/s
Width : 3 840 pixels
Height : 2 160 pixels
Display aspect ratio : 16:9
Frame rate mode : Constant
Frame rate : 23.976 (24000/1001) FPS
Color space : YUV
Chroma subsampling : 4:2:0 (Type 2)
Bit depth : 10 bits
Bits/(Pixel*Frame) : 0.267
Stream size : 47.0 GiB (81%)
Writing library : ATEME Titan KFE 3.7.3 (4.7.3.1003)
Language : English
Default : No
Forced : No
Color range : Limited
Color primaries : BT.2020
Transfer characteristics : PQ
Matrix coefficients : BT.2020 non-constant
Mastering display color primaries : Display P3
Mastering display luminance : min: 0.0050 cd/m2, max: 1000 cd/m2
Original source medium : Blu-ray

Audio #1
ID : 2
ID in the original source medium : 4352 (0x1100)
Format : MLP FBA 16-ch
Format/Info : Meridian Lossless Packing FBA with 16-channel presentation
Commercial name : Dolby TrueHD with Dolby Atmos
Codec ID : A_TRUEHD
Duration : 2 h 6 min
Bit rate mode : Variable
Bit rate : 4 995 kb/s
Maximum bit rate : 8 337 kb/s
Channel(s) : 8 channels
Channel layout : L R C LFE Ls Rs Lb Rb
Sampling rate : 48.0 kHz
Frame rate : 1 200.000 FPS (40 SPF)
Bit depth : 24 bits
Compression mode : Lossless
Stream size : 4.42 GiB (8%)
Title : TrueHD 7.1 Atmos
Language : English
Default : Yes
Forced : No
Original source medium : Blu-ray
Number of dynamic objects : 11
Bed channel count : 1 channel
Bed channel configuration : LFE

Audio #2
ID : 3
Format : DTS XLL
Format/Info : Digital Theater Systems
Commercial name : DTS-HD Master Audio
Codec ID : A_DTS
Duration : 2 h 6 min
Bit rate mode : Variable
Bit rate : 4 154 kb/s
Channel(s) : 8 channels
Channel layout : C L R LFE Lb Rb Lss Rss
Sampling rate : 48.0 kHz
Frame rate : 93.750 FPS (512 SPF)
Bit depth : 24 bits
Compression mode : Lossless
Stream size : 3.68 GiB (6%)
Title : DTS-HD MA 7.1
Language : English
Default : No
Forced : No

Audio #3
ID : 4
ID in the original source medium : 4352 (0x1100)
Format : AC-3
Format/Info : Audio Coding 3
Commercial name : Dolby Digital
Format settings : Dolby Surround EX
Codec ID : A_AC3
Duration : 2 h 6 min
Bit rate mode : Constant
Bit rate : 640 kb/s
Channel(s) : 6 channels
Channel layout : L R C LFE Ls Rs
Sampling rate : 48.0 kHz
Frame rate : 31.250 FPS (1536 SPF)
Compression mode : Lossy
Stream size : 581 MiB (1%)
Title : DD 5.1
Language : English
Service kind : Complete Main
Default : No
Forced : No
Original source medium : Blu-ray

Audio #4
ID : 5
ID in the original source medium : 4353 (0x1101)
Format : AC-3
Format/Info : Audio Coding 3
Commercial name : Dolby Digital
Codec ID : A_AC3
Duration : 2 h 6 min
Bit rate mode : Constant
Bit rate : 640 kb/s
Channel(s) : 6 channels
Channel layout : L R C LFE Ls Rs
Sampling rate : 48.0 kHz
Frame rate : 31.250 FPS (1536 SPF)
Compression mode : Lossy
Stream size : 581 MiB (1%)
Title : DD 5.1
Language : French
Service kind : Complete Main
Default : No
Forced : No
Original source medium : Blu-ray

Audio #5
ID : 6
ID in the original source medium : 4354 (0x1102)
Format : AC-3
Format/Info : Audio Coding 3
Commercial name : Dolby Digital
Codec ID : A_AC3
Duration : 2 h 6 min
Bit rate mode : Constant
Bit rate : 640 kb/s
Channel(s) : 6 channels
Channel layout : L R C LFE Ls Rs
Sampling rate : 48.0 kHz
Frame rate : 31.250 FPS (1536 SPF)
Compression mode : Lossy
Stream size : 581 MiB (1%)
Title : DD 5.1
Language : Spanish
Service kind : Complete Main
Default : No
Forced : No
Original source medium : Blu-ray

Audio #6
ID : 7
ID in the original source medium : 4355 (0x1103)
Format : AC-3
Format/Info : Audio Coding 3
Commercial name : Dolby Digital
Codec ID : A_AC3
Duration : 2 h 6 min
Bit rate mode : Constant
Bit rate : 640 kb/s
Channel(s) : 6 channels
Channel layout : L R C LFE Ls Rs
Sampling rate : 48.0 kHz
Frame rate : 31.250 FPS (1536 SPF)
Compression mode : Lossy
Stream size : 581 MiB (1%)
Title : DD 5.1
Language : Portuguese
Service kind : Complete Main
Default : No
Forced : No
Original source medium : Blu-ray

Audio #7
ID : 8
ID in the original source medium : 4356 (0x1104)
Format : AC-3
Format/Info : Audio Coding 3
Commercial name : Dolby Digital
Codec ID : A_AC3
Duration : 2 h 6 min
Bit rate mode : Constant
Bit rate : 640 kb/s
Channel(s) : 6 channels
Channel layout : L R C LFE Ls Rs
Sampling rate : 48.0 kHz
Frame rate : 31.250 FPS (1536 SPF)
Compression mode : Lossy
Stream size : 581 MiB (1%)
Title : DD 5.1
Language : English
Service kind : Complete Main
Default : No
Forced : No
Original source medium : Blu-ray

Audio #8
ID : 9
ID in the original source medium : 4357 (0x1105)
Format : AC-3
Format/Info : Audio Coding 3
Commercial name : Dolby Digital
Codec ID : A_AC3
Duration : 2 h 6 min
Bit rate mode : Constant
Bit rate : 224 kb/s
Channel(s) : 2 channels
Channel layout : L R
Sampling rate : 48.0 kHz
Frame rate : 31.250 FPS (1536 SPF)
Compression mode : Lossy
Stream size : 203 MiB (0%)
Title : DD 2.0
Language : English
Service kind : Complete Main
Default : No
Forced : No
Original source medium : Blu-ray

Text #1
ID : 10
Format : UTF-8
Codec ID : S_TEXT/UTF8
Codec ID/Info : UTF-8 Plain Text
Duration : 1 h 57 min
Bit rate : 65 b/s
Frame rate : 0.191 FPS
Count of elements : 1341
Stream size : 56.0 KiB (0%)
Language : English
Default : Yes
Forced : No

Text #2
ID : 11
Format : UTF-8
Codec ID : S_TEXT/UTF8
Codec ID/Info : UTF-8 Plain Text
Duration : 1 h 57 min
Bit rate : 69 b/s
Frame rate : 0.226 FPS
Count of elements : 1592
Stream size : 59.7 KiB (0%)
Title : SDH
Language : English
Default : No
Forced : No

Text #3
ID : 12
ID in the original source medium : 4768 (0x12A0)
Format : PGS
Muxing mode : zlib
Codec ID : S_HDMV/PGS
Codec ID/Info : Picture based subtitle format used on BDs/HD-DVDs
Duration : 1 h 57 min
Bit rate : 38.5 kb/s
Frame rate : 0.375 FPS
Count of elements : 2634
Stream size : 32.2 MiB (0%)
Language : English
Default : No
Forced : No
Original source medium : Blu-ray

Text #4
ID : 13
ID in the original source medium : 4769 (0x12A1)
Format : PGS
Muxing mode : zlib
Codec ID : S_HDMV/PGS
Codec ID/Info : Picture based subtitle format used on BDs/HD-DVDs
Duration : 1 h 57 min
Bit rate : 43.6 kb/s
Frame rate : 0.454 FPS
Count of elements : 3192
Stream size : 36.6 MiB (0%)
Title : SDH
Language : English
Default : No
Forced : No
Original source medium : Blu-ray

Text #5
ID : 14
ID in the original source medium : 4770 (0x12A2)
Format : PGS
Muxing mode : zlib
Codec ID : S_HDMV/PGS
Codec ID/Info : Picture based subtitle format used on BDs/HD-DVDs
Duration : 2 h 5 min
Bit rate : 35.3 kb/s
Frame rate : 0.354 FPS
Count of elements : 2660
Stream size : 31.6 MiB (0%)
Language : French
Default : No
Forced : No
Original source medium : Blu-ray

Text #6
ID : 15
ID in the original source medium : 4771 (0x12A3)
Format : PGS
Muxing mode : zlib
Codec ID : S_HDMV/PGS
Codec ID/Info : Picture based subtitle format used on BDs/HD-DVDs
Duration : 1 h 57 min
Bit rate : 31.7 kb/s
Frame rate : 0.372 FPS
Count of elements : 2610
Stream size : 26.6 MiB (0%)
Language : Spanish
Default : No
Forced : No
Original source medium : Blu-ray

Text #7
ID : 16
ID in the original source medium : 4772 (0x12A4)
Format : PGS
Muxing mode : zlib
Codec ID : S_HDMV/PGS
Codec ID/Info : Picture based subtitle format used on BDs/HD-DVDs
Duration : 2 h 5 min
Bit rate : 29.1 kb/s
Frame rate : 0.345 FPS
Count of elements : 2586
Stream size : 26.1 MiB (0%)
Language : Portuguese
Default : No
Forced : No
Original source medium : Blu-ray

Text #8
ID : 17
ID in the original source medium : 4773 (0x12A5)
Format : PGS
Muxing mode : zlib
Codec ID : S_HDMV/PGS
Codec ID/Info : Picture based subtitle format used on BDs/HD-DVDs
Duration : 1 h 52 min
Bit rate : 83 b/s
Frame rate : 0.001 FPS
Count of elements : 8
Stream size : 68.2 KiB (0%)
Title : FORCED
Language : French
Default : No
Forced : No
Original source medium : Blu-ray

Text #9
ID : 18
ID in the original source medium : 4773 (0x12A5)
Format : PGS
Muxing mode : zlib
Codec ID : S_HDMV/PGS
Codec ID/Info : Picture based subtitle format used on BDs/HD-DVDs
Duration : 1 h 52 min
Bit rate : 83 b/s
Frame rate : 0.001 FPS
Count of elements : 8
Stream size : 68.2 KiB (0%)
Title : FORCED
Language : French
Default : No
Forced : No
Original source medium : Blu-ray

Text #10
ID : 19
ID in the original source medium : 4774 (0x12A6)
Format : PGS
Muxing mode : zlib
Codec ID : S_HDMV/PGS
Codec ID/Info : Picture based subtitle format used on BDs/HD-DVDs
Duration : 13 min 51 s
Bit rate : 210 b/s
Frame rate : 0.005 FPS
Count of elements : 4
Stream size : 21.4 KiB (0%)
Title : FORCED
Language : Spanish
Default : No
Forced : No
Original source medium : Blu-ray

Text #11
ID : 20
ID in the original source medium : 4774 (0x12A6)
Format : PGS
Muxing mode : zlib
Codec ID : S_HDMV/PGS
Codec ID/Info : Picture based subtitle format used on BDs/HD-DVDs
Duration : 13 min 51 s
Bit rate : 210 b/s
Frame rate : 0.005 FPS
Count of elements : 4
Stream size : 21.4 KiB (0%)
Title : FORCED
Language : Spanish
Default : No
Forced : No
Original source medium : Blu-ray

Text #12
ID : 21
ID in the original source medium : 4775 (0x12A7)
Format : PGS
Muxing mode : zlib
Codec ID : S_HDMV/PGS
Codec ID/Info : Picture based subtitle format used on BDs/HD-DVDs
Duration : 1 h 52 min
Bit rate : 78 b/s
Frame rate : 0.001 FPS
Count of elements : 8
Stream size : 64.3 KiB (0%)
Title : FORCED
Language : Portuguese
Default : No
Forced : No
Original source medium : Blu-ray

Text #13
ID : 22
ID in the original source medium : 4775 (0x12A7)
Format : PGS
Muxing mode : zlib
Codec ID : S_HDMV/PGS
Codec ID/Info : Picture based subtitle format used on BDs/HD-DVDs
Duration : 1 h 52 min
Bit rate : 78 b/s
Frame rate : 0.001 FPS
Count of elements : 8
Stream size : 64.3 KiB (0%)
Title : FORCED
Language : Portuguese
Default : No
Forced : No
Original source medium : Blu-ray

Menu
00:00:00.000 : en:Chapter 01
00:11:57.216 : en:Chapter 02
00:19:45.100 : en:Chapter 03
00:28:09.104 : en:Chapter 04
00:35:33.506 : en:Chapter 05
00:44:10.272 : en:Chapter 06
00:52:21.346 : en:Chapter 07
01:01:33.481 : en:Chapter 08
01:11:40.087 : en:Chapter 09
01:20:39.501 : en:Chapter 10
01:27:35.291 : en:Chapter 11
01:36:29.450 : en:Chapter 12
01:44:34.101 : en:Chapter 13
01:53:13.411 : en:Chapter 14
01:58:20.551 : en:Chapter 15

新种推荐使用qBittorrent、uTorrent等下载软件,有条件的推荐115更好的下载软件!

星际迷航(58.20GB)Star.Trek.2009.PROPER.2160p.BluRay.REMUX.HEVC.DTS-HD.MA.TrueHD.7.1.Atmos-FGT-【2160P蓝光REMUX】
游客,如果您要查看本帖隐藏内容请回复

星际迷航(11.93GB)Star.Trek.2009.2160p.UHD.BluRay.x265.10bit.HDR.TrueHD.7.1.Atmos-RARBG
游客,如果您要查看本帖隐藏内容请回复

星际迷航(7.79GB)Star.Trek.2009.2160p.UHD.BluRay.x265.10bit.HDR.DDP5.1.Atmos-RARBG
游客,如果您要查看本帖隐藏内容请回复



QQ4K海报.gif



上一篇:睡梦医生[内嵌中字] / Star Trek (2009) 4K蓝光REMUX版本下载
下一篇:星际迷航3:超越星辰 / Star Trek Beyond (2016) 4K蓝光REMUX版本下载
回复

使用道具 举报

1

主题

1398

帖子

4004

积分

4K家园VIP

Rank: 9Rank: 9Rank: 9

积分
4004
发表于 2022-9-17 13:16:01 | 显示全部楼层
多发些资源啊
回复 支持 反对

使用道具 举报

0

主题

3

帖子

24

积分

新手上路

Rank: 1

积分
24
发表于 2022-9-20 21:56:42 | 显示全部楼层
楼主辛苦,谢谢分享。
回复 支持 反对

使用道具 举报

2

主题

1348

帖子

3896

积分

4K家园VIP

Rank: 9Rank: 9Rank: 9

积分
3896
发表于 7 天前 来自手机 | 显示全部楼层
前排顶起
回复 支持 反对

使用道具 举报

53

主题

1253

帖子

3827

积分

4K家园VIP

Rank: 9Rank: 9Rank: 9

积分
3827
发表于 7 天前 | 显示全部楼层
多发些资源啊
回复 支持 反对

使用道具 举报

0

主题

6

帖子

24

积分

新手上路

Rank: 1

积分
24
发表于 前天 22:46 | 显示全部楼层
楼主辛苦,谢谢分享
回复 支持 反对

使用道具 举报

49

主题

1485

帖子

4281

积分

4K家园VIP

Rank: 9Rank: 9Rank: 9

积分
4281
发表于 昨天 08:02 | 显示全部楼层
前排顶起
回复 支持 反对

使用道具 举报

2

主题

1320

帖子

3978

积分

4K家园VIP

Rank: 9Rank: 9Rank: 9

积分
3978
发表于 4 小时前 | 显示全部楼层
多发些资源啊
回复 支持 反对

使用道具 举报

您需要登录后才可以回帖 登录 | 立即注册

本版积分规则

精彩图文
Archiver|手机版|TAG|Sitemap|新帖|专题|联系我们:邮箱: 4kjia.com@gmail.com   

4k家园   ©2019