[4K电影] 星运里的错 [简繁粤]/The Fault in Our Stars (2014) 4K高清版本下载

[复制链接]

2327

主题

2476

帖子

1万

积分

超级版主

Rank: 8Rank: 8

积分
17940
 楼主| 发表于 2022-9-17 13:02:10 | 显示全部楼层 |阅读模式
QQ图片20220917124936_副本.png

◎标  题 星运里的错
◎译  名 生命中的美好缺憾(港 / 台) / 命运的错 / 无比美妙的痛苦
◎片  名 The Fault in Our Stars
◎年  代 2014
◎产  地 美国
◎类  别 剧情 / 爱情
◎语  言 英语
◎上映日期 2014-06-06(美国)
◎IMDb评分 7.7/10 from 374685 users 更新 : 2022-09-13
◎IMDb链接 https://www.imdb.com/title/tt2582846/
◎豆瓣评分 7.9/10 from 104468 users 更新 : 2022-09-17
◎豆瓣链接 https://movie.douban.com/subject/22733673/
◎片  长 126分钟
◎导  演 约什·布恩 Josh Boone
◎编  剧 斯科特·纽斯塔德 Scott Neustadter / 迈克尔·H·韦伯 Michael H. Weber / 约翰·格林 John Green
◎演  员 谢琳·伍德蕾 Shailene Woodley
       安塞尔·艾尔高特 Ansel Elgort
       纳特·沃尔夫 Nat Wolff
       劳拉·邓恩 Laura Dern
       山姆·特拉梅尔 Sam Trammell
       威廉·达福 Willem Dafoe
       洛特·弗贝克 Lotte Verbeek
       安娜·德拉·克鲁兹 Ana Dela Cruz
       兰迪·科维茨 Randy Kovitz
       大卫·惠伦 David Whalen
       麦丽卡·戈维奇 Milica Govich
       Allegra Carpenter Allegra Carpenter
       艾米丽·皮奇 Emily Peachey
       迈克·比尔比利亚 Mike Birbiglia
       让·布拉萨尔 Jean Brassard
       卡罗尔·威尔斯 Carole Weyers
       丹尼尔·博克 Daniel Booko
       杰奎琳·皮诺尔 Jacqueline Pinol
       吉姆·皮里 Jim Pirri
       尼古拉斯·格斯特 Nicholas Guest
       马修·沃尔夫 Matthew Wolf
       约翰·格林 John Green
       弗兰基·帕隆比 Frankie Palombi
       威廉·卡尼亚 William Kania
       怀亚特·麦克卢尔 Wyatt McClure
       吉恩·吉尔平 Jean Gilpin


◎简  介


  海泽尔(谢琳·伍德蕾 Shailene Woodley 饰)是一名十六岁的美丽少女,正处在黄金年代的她本该和其他同龄人一样尽情享受生命和青春带来的快乐与希望,但无情的病魔找上了海泽尔,她是一名肺癌患者。
尽管最近病情有所好转,但海泽尔的心情却并没有因此而轻松半分,癌症随时可能复发的阴影和无法中断的治疗如影随形,让海泽尔对生命几乎失去了所有的热情和希望。一次偶然中,海泽尔在癌友互助会中结识了名叫奥古斯都(安塞尔·埃尔格特 Ansel Elgort 饰)的英俊男孩,他所患的是骨癌。两个境遇相似的年轻人很快就越走越近,他们在一起,探索着上帝留给他们的小小的一片世界,海泽尔也因此看到了未来和希望。
Video
ID : 1
Format : HEVC
Format/Info : High Efficiency Video Coding
Format profile : Main 10@L5@Main
Codec ID : V_MPEGH/ISO/HEVC
Duration : 2 h 5 min
Bit rate : 24.5 Mb/s
Width : 3 840 pixels
Height : 2 160 pixels
Display aspect ratio : 16:9
Frame rate mode : Constant
Frame rate : 23.976 (24000/1001) FPS
Color space : YUV
Chroma subsampling : 4:2:0 (Type 2)
Bit depth : 10 bits
Bits/(Pixel*Frame) : 0.123
Stream size : 21.5 GiB (84%)
Language : English
Default : Yes
Forced : No
Color range : Limited
Color primaries : BT.709
Transfer characteristics : BT.709
Matrix coefficients : BT.709

Audio #1
ID : 2
Format : DTS XLL
Format/Info : Digital Theater Systems
Commercial name : DTS-HD Master Audio
Codec ID : A_DTS
Duration : 2 h 5 min
Bit rate mode : Variable
Bit rate : 3 638 kb/s
Channel(s) : 6 channels
Channel layout : C L R Ls Rs LFE
Sampling rate : 48.0 kHz
Frame rate : 93.750 FPS (512 SPF)
Bit depth : 24 bits
Compression mode : Lossless
Delay relative to video : 1 s 1 ms
Stream size : 3.20 GiB (13%)
Title : DTS-HD AM 5.1
Language : English
Default : Yes
Forced : No

Audio #2
ID : 3
Format : AC-3
Format/Info : Audio Coding 3
Commercial name : Dolby Digital
Codec ID : A_AC3
Duration : 2 h 5 min
Bit rate mode : Constant
Bit rate : 640 kb/s
Channel(s) : 6 channels
Channel layout : L R C LFE Ls Rs
Sampling rate : 48.0 kHz
Frame rate : 31.250 FPS (1536 SPF)
Compression mode : Lossy
Stream size : 576 MiB (2%)
Title : DD 5.1
Language : English
Service kind : Complete Main
Default : No
Forced : No

Audio #3
ID : 4
Format : AC-3
Format/Info : Audio Coding 3
Commercial name : Dolby Digital
Codec ID : A_AC3
Duration : 2 h 5 min
Bit rate mode : Constant
Bit rate : 224 kb/s
Channel(s) : 2 channels
Channel layout : L R
Sampling rate : 48.0 kHz
Frame rate : 31.250 FPS (1536 SPF)
Compression mode : Lossy
Delay relative to video : 1 s 1 ms
Stream size : 202 MiB (1%)
Title : English Commentary With Josh Boone And Novel Writer John Green
Language : English
Service kind : Complete Main
Default : No
Forced : No

Text #1
ID : 5
Format : UTF-8
Codec ID : S_TEXT/UTF8
Codec ID/Info : UTF-8 Plain Text
Duration : 1 h 58 min
Bit rate : 65 b/s
Frame rate : 0.270 FPS
Count of elements : 1920
Stream size : 57.1 KiB (0%)
Language : English
Default : Yes
Forced : No

Text #2
ID : 6
Format : UTF-8
Codec ID : S_TEXT/UTF8
Codec ID/Info : UTF-8 Plain Text
Duration : 2 h 2 min
Bit rate : 70 b/s
Frame rate : 0.298 FPS
Count of elements : 2185
Stream size : 62.9 KiB (0%)
Title : SDH
Language : English
Default : No
Forced : No

Text #3
ID : 7
Format : UTF-8
Codec ID : S_TEXT/UTF8
Codec ID/Info : UTF-8 Plain Text
Duration : 2 h 5 min
Bit rate : 153 b/s
Frame rate : 0.339 FPS
Count of elements : 2551
Stream size : 141 KiB (0%)
Title : English Commentary With Josh Boone And Novel Writer John Green
Language : English
Default : No
Forced : No

Text #4
ID : 8
Format : UTF-8
Codec ID : S_TEXT/UTF8
Codec ID/Info : UTF-8 Plain Text
Duration : 2 h 5 min
Bit rate : 85 b/s
Frame rate : 0.241 FPS
Count of elements : 1814
Stream size : 78.6 KiB (0%)
Language : Arabic
Default : No
Forced : No

Text #5
ID : 9
Format : UTF-8
Codec ID : S_TEXT/UTF8
Codec ID/Info : UTF-8 Plain Text
Duration : 2 h 5 min
Bit rate : 93 b/s
Frame rate : 0.242 FPS
Count of elements : 1819
Stream size : 85.7 KiB (0%)
Language : Bulgarian
Default : No
Forced : No

Text #6
ID : 10
Format : UTF-8
Codec ID : S_TEXT/UTF8
Codec ID/Info : UTF-8 Plain Text
Duration : 2 h 5 min
Bit rate : 46 b/s
Frame rate : 0.243 FPS
Count of elements : 1825
Stream size : 42.5 KiB (0%)
Title : 中文(简体)
Language : 中文
Default : No
Forced : No

Text #7
ID : 11
Format : UTF-8
Codec ID : S_TEXT/UTF8
Codec ID/Info : UTF-8 Plain Text
Duration : 2 h 5 min
Bit rate : 45 b/s
Frame rate : 0.243 FPS
Count of elements : 1825
Stream size : 41.4 KiB (0%)
Title : 中文(繁体)
Language : 中文
Default : No
Forced : No


Text #8
ID : 12
Format : UTF-8
Codec ID : S_TEXT/UTF8
Codec ID/Info : UTF-8 Plain Text
Duration : 2 h 5 min
Bit rate : 59 b/s
Frame rate : 0.243 FPS
Count of elements : 1826
Stream size : 54.4 KiB (0%)
Language : Czech
Default : No
Forced : No

Text #9
ID : 13
Format : UTF-8
Codec ID : S_TEXT/UTF8
Codec ID/Info : UTF-8 Plain Text
Duration : 2 h 5 min
Bit rate : 56 b/s
Frame rate : 0.232 FPS
Count of elements : 1743
Stream size : 51.5 KiB (0%)
Language : Danish
Default : No
Forced : No

Text #10
ID : 14
Format : UTF-8
Codec ID : S_TEXT/UTF8
Codec ID/Info : UTF-8 Plain Text
Duration : 2 h 5 min
Bit rate : 58 b/s
Frame rate : 0.229 FPS
Count of elements : 1724
Stream size : 53.4 KiB (0%)
Language : German
Default : No
Forced : No

Text #11
ID : 15
Format : UTF-8
Codec ID : S_TEXT/UTF8
Codec ID/Info : UTF-8 Plain Text
Duration : 2 h 5 min
Bit rate : 97 b/s
Frame rate : 0.198 FPS
Count of elements : 1487
Stream size : 89.7 KiB (0%)
Language : Greek
Default : No
Forced : No

Text #12
ID : 16
Format : UTF-8
Codec ID : S_TEXT/UTF8
Codec ID/Info : UTF-8 Plain Text
Duration : 2 h 5 min
Bit rate : 59 b/s
Frame rate : 0.228 FPS
Count of elements : 1713
Stream size : 54.2 KiB (0%)
Title : Latin American
Language : Spanish
Default : No
Forced : No

Text #13
ID : 17
Format : UTF-8
Codec ID : S_TEXT/UTF8
Codec ID/Info : UTF-8 Plain Text
Duration : 2 h 5 min
Bit rate : 48 b/s
Frame rate : 0.235 FPS
Count of elements : 1769
Stream size : 44.9 KiB (0%)
Language : Finnish
Default : No
Forced : No

Text #14
ID : 18
Format : UTF-8
Codec ID : S_TEXT/UTF8
Codec ID/Info : UTF-8 Plain Text
Duration : 2 h 5 min
Bit rate : 59 b/s
Frame rate : 0.242 FPS
Count of elements : 1822
Stream size : 55.0 KiB (0%)
Title : Canadian
Language : French
Default : No
Forced : No

Text #15
ID : 19
Format : UTF-8
Codec ID : S_TEXT/UTF8
Codec ID/Info : UTF-8 Plain Text
Duration : 2 h 5 min
Bit rate : 90 b/s
Frame rate : 0.243 FPS
Count of elements : 1824
Stream size : 83.4 KiB (0%)
Language : Hebrew
Default : No
Forced : No

Text #16
ID : 20
Format : UTF-8
Codec ID : S_TEXT/UTF8
Codec ID/Info : UTF-8 Plain Text
Duration : 2 h 5 min
Bit rate : 141 b/s
Frame rate : 0.243 FPS
Count of elements : 1824
Stream size : 130 KiB (0%)
Language : Hindi
Default : No
Forced : No

Text #17
ID : 21
Format : UTF-8
Codec ID : S_TEXT/UTF8
Codec ID/Info : UTF-8 Plain Text
Duration : 2 h 5 min
Bit rate : 56 b/s
Frame rate : 0.238 FPS
Count of elements : 1793
Stream size : 51.6 KiB (0%)
Language : Croatian
Default : No
Forced : No

Text #18
ID : 22
Format : UTF-8
Codec ID : S_TEXT/UTF8
Codec ID/Info : UTF-8 Plain Text
Duration : 2 h 5 min
Bit rate : 54 b/s
Frame rate : 0.176 FPS
Count of elements : 1321
Stream size : 50.0 KiB (0%)
Language : Hungarian
Default : No
Forced : No

Text #19
ID : 23
Format : UTF-8
Codec ID : S_TEXT/UTF8
Codec ID/Info : UTF-8 Plain Text
Duration : 2 h 5 min
Bit rate : 55 b/s
Frame rate : 0.242 FPS
Count of elements : 1819
Stream size : 51.2 KiB (0%)
Language : Indonesian
Default : No
Forced : No

Text #20
ID : 24
Format : UTF-8
Codec ID : S_TEXT/UTF8
Codec ID/Info : UTF-8 Plain Text
Duration : 2 h 5 min
Bit rate : 59 b/s
Frame rate : 0.226 FPS
Count of elements : 1696
Stream size : 54.8 KiB (0%)
Language : Icelandic
Default : No
Forced : No

Text #21
ID : 25
Format : UTF-8
Codec ID : S_TEXT/UTF8
Codec ID/Info : UTF-8 Plain Text
Duration : 2 h 5 min
Bit rate : 55 b/s
Frame rate : 0.242 FPS
Count of elements : 1822
Stream size : 51.0 KiB (0%)
Language : Italian
Default : No
Forced : No

Text #22
ID : 26
Format : UTF-8
Codec ID : S_TEXT/UTF8
Codec ID/Info : UTF-8 Plain Text
Duration : 2 h 5 min
Bit rate : 57 b/s
Frame rate : 0.246 FPS
Count of elements : 1849
Stream size : 52.6 KiB (0%)
Language : Korean
Default : No
Forced : No

Text #23
ID : 27
Format : UTF-8
Codec ID : S_TEXT/UTF8
Codec ID/Info : UTF-8 Plain Text
Duration : 2 h 5 min
Bit rate : 59 b/s
Frame rate : 0.242 FPS
Count of elements : 1821
Stream size : 54.9 KiB (0%)
Language : Malay
Default : No
Forced : No

Text #24
ID : 28
Format : UTF-8
Codec ID : S_TEXT/UTF8
Codec ID/Info : UTF-8 Plain Text
Duration : 2 h 5 min
Bit rate : 49 b/s
Frame rate : 0.191 FPS
Count of elements : 1439
Stream size : 45.5 KiB (0%)
Language : Dutch
Default : No
Forced : No

Text #25
ID : 29
Format : UTF-8
Codec ID : S_TEXT/UTF8
Codec ID/Info : UTF-8 Plain Text
Duration : 2 h 5 min
Bit rate : 58 b/s
Frame rate : 0.242 FPS
Count of elements : 1821
Stream size : 53.6 KiB (0%)
Language : Norwegian
Default : No
Forced : No

Text #26
ID : 30
Format : UTF-8
Codec ID : S_TEXT/UTF8
Codec ID/Info : UTF-8 Plain Text
Duration : 2 h 5 min
Bit rate : 46 b/s
Frame rate : 0.227 FPS
Count of elements : 1706
Stream size : 42.5 KiB (0%)
Language : Polish
Default : No
Forced : No

Text #27
ID : 31
Format : UTF-8
Codec ID : S_TEXT/UTF8
Codec ID/Info : UTF-8 Plain Text
Duration : 2 h 5 min
Bit rate : 51 b/s
Frame rate : 0.238 FPS
Count of elements : 1793
Stream size : 47.5 KiB (0%)
Title : Brazilian
Language : Portuguese
Default : No
Forced : No

Text #28
ID : 32
Format : UTF-8
Codec ID : S_TEXT/UTF8
Codec ID/Info : UTF-8 Plain Text
Duration : 2 h 5 min
Bit rate : 88 b/s
Frame rate : 0.239 FPS
Count of elements : 1795
Stream size : 81.2 KiB (0%)
Language : Russian
Default : No
Forced : No

Text #29
ID : 33
Format : UTF-8
Codec ID : S_TEXT/UTF8
Codec ID/Info : UTF-8 Plain Text
Duration : 2 h 5 min
Bit rate : 51 b/s
Frame rate : 0.241 FPS
Count of elements : 1814
Stream size : 47.0 KiB (0%)
Language : Slovak
Default : No
Forced : No

Text #30
ID : 34
Format : UTF-8
Codec ID : S_TEXT/UTF8
Codec ID/Info : UTF-8 Plain Text
Duration : 2 h 5 min
Bit rate : 50 b/s
Frame rate : 0.171 FPS
Count of elements : 1287
Stream size : 46.0 KiB (0%)
Language : Slovenian
Default : No
Forced : No

Text #31
ID : 35
Format : UTF-8
Codec ID : S_TEXT/UTF8
Codec ID/Info : UTF-8 Plain Text
Duration : 2 h 5 min
Bit rate : 59 b/s
Frame rate : 0.243 FPS
Count of elements : 1825
Stream size : 54.3 KiB (0%)
Title : Latin
Language : Serbian
Default : No
Forced : No

Text #32
ID : 36
Format : UTF-8
Codec ID : S_TEXT/UTF8
Codec ID/Info : UTF-8 Plain Text
Duration : 2 h 5 min
Bit rate : 54 b/s
Frame rate : 0.242 FPS
Count of elements : 1822
Stream size : 50.3 KiB (0%)
Language : Swedish
Default : No
Forced : No

Text #33
ID : 37
Format : UTF-8
Codec ID : S_TEXT/UTF8
Codec ID/Info : UTF-8 Plain Text
Duration : 2 h 5 min
Bit rate : 139 b/s
Frame rate : 0.243 FPS
Count of elements : 1825
Stream size : 128 KiB (0%)
Language : Thai
Default : No
Forced : No

Text #34
ID : 38
Format : UTF-8
Codec ID : S_TEXT/UTF8
Codec ID/Info : UTF-8 Plain Text
Duration : 2 h 5 min
Bit rate : 57 b/s
Frame rate : 0.242 FPS
Count of elements : 1823
Stream size : 52.8 KiB (0%)
Language : Turkish
Default : No
Forced : No

Text #35
ID : 39
Format : UTF-8
Codec ID : S_TEXT/UTF8
Codec ID/Info : UTF-8 Plain Text
Duration : 2 h 5 min
Bit rate : 99 b/s
Frame rate : 0.243 FPS
Count of elements : 1826
Stream size : 91.4 KiB (0%)
Language : Ukrainian
Default : No
Forced : No

Text #36
ID : 40
Format : UTF-8
Codec ID : S_TEXT/UTF8
Codec ID/Info : UTF-8 Plain Text
Duration : 2 h 5 min
Bit rate : 82 b/s
Frame rate : 0.242 FPS
Count of elements : 1821
Stream size : 75.8 KiB (0%)
Language : Vietnamese
Default : No
Forced : No

Text #37
ID : 41
Format : UTF-8
Codec ID : S_TEXT/UTF8
Codec ID/Info : UTF-8 Plain Text
Duration : 2 h 5 min
Bit rate : 44 b/s
Frame rate : 0.244 FPS
Count of elements : 1835
Stream size : 41.3 KiB (0%)
Title : 中文(粤语)
Language : 中文
Default : No
Forced : No


Menu
00:00:01.000 : en:Chapter 01
00:02:35.000 : en:Chapter 02
00:06:26.000 : en:Chapter 03
00:13:02.000 : en:Chapter 04
00:15:08.000 : en:Chapter 05
00:18:13.000 : en:Chapter 06
00:21:06.000 : en:Chapter 07
00:25:00.000 : en:Chapter 08
00:28:36.000 : en:Chapter 09
00:31:31.000 : en:Chapter 10
00:36:41.000 : en:Chapter 11
00:40:19.000 : en:Chapter 12
00:45:49.000 : en:Chapter 13
00:52:01.000 : en:Chapter 14
00:57:47.000 : en:Chapter 15
01:01:01.000 : en:Chapter 16
01:03:37.000 : en:Chapter 17
01:10:17.000 : en:Chapter 18
01:16:18.000 : en:Chapter 19
01:20:50.000 : en:Chapter 20
01:24:24.000 : en:Chapter 21
01:30:10.000 : en:Chapter 22
01:37:07.000 : en:Chapter 23
01:39:35.000 : en:Chapter 24
01:45:27.000 : en:Chapter 25
01:50:33.000 : en:Chapter 26
01:54:18.000 : en:Chapter 27
01:59:25.000 : en:Chapter 28

资源速度为零或资源敏感被和谐时,推荐使用qBittorrent等下载软件,有条件的推荐115更好的下载软件!

下载地址:

游客,如果您要查看本帖隐藏内容请回复






上一篇:晚安妈咪[简繁中字] / Goodnight Mommy (2022) 4K高清版本下载
下一篇:邀请函 / The Invitation (2022) 4K高清版本下载
回复

使用道具 举报

0

主题

1199

帖子

3611

积分

4K家园VIP

Rank: 9Rank: 9Rank: 9

积分
3611
发表于 2022-9-17 13:02:15 来自手机 | 显示全部楼层
多谢楼主分享
回复 支持 反对

使用道具 举报

0

主题

8663

帖子

2万

积分

4K家园VIP

Rank: 9Rank: 9Rank: 9

积分
20189
发表于 2022-9-17 15:59:36 | 显示全部楼层
星運裏的錯[簡繁粵]4k
回复 支持 反对

使用道具 举报

40

主题

1542

帖子

4424

积分

4K家园VIP

Rank: 9Rank: 9Rank: 9

积分
4424
发表于 2022-9-20 15:23:18 | 显示全部楼层
为保住菊花,这个一定得回复!
回复 支持 反对

使用道具 举报

0

主题

125

帖子

6122

积分

高级会员

Rank: 3Rank: 3

积分
6122
发表于 2022-9-20 19:09:13 | 显示全部楼层
多谢楼主分享
回复 支持 反对

使用道具 举报

0

主题

6

帖子

19

积分

新手上路

Rank: 1

积分
19
发表于 2022-9-20 20:48:04 来自手机 | 显示全部楼层
学习一下
回复

使用道具 举报

0

主题

55

帖子

780

积分

新手上路

Rank: 1

积分
780
发表于 7 天前 | 显示全部楼层
看禁闻http://v.ht/tttd 点击访问
回复

使用道具 举报

53

主题

1549

帖子

4487

积分

4K家园VIP

Rank: 9Rank: 9Rank: 9

积分
4487
发表于 3 天前 | 显示全部楼层
试试看吧
回复 支持 反对

使用道具 举报

0

主题

5

帖子

18

积分

新手上路

Rank: 1

积分
18
发表于 3 天前 来自手机 | 显示全部楼层
多谢
回复

使用道具 举报

0

主题

5

帖子

18

积分

新手上路

Rank: 1

积分
18
发表于 3 天前 来自手机 | 显示全部楼层
多谢
回复

使用道具 举报

您需要登录后才可以回帖 登录 | 立即注册

本版积分规则

精彩图文
Archiver|手机版|TAG|Sitemap|新帖|专题|联系我们:邮箱: 4kjia.com@gmail.com   

4k家园   ©2019