[4K电影] 邀请函 / The Invitation (2022) 4K高清版本下载

[复制链接]

2327

主题

2476

帖子

1万

积分

超级版主

Rank: 8Rank: 8

积分
17940
 楼主| 发表于 2022-9-17 13:11:37 | 显示全部楼层 |阅读模式
本帖最后由 最爱4K哟 于 2022-9-17 13:13 编辑

QQ图片20220917130936_副本.png

◎译  名 邀请函/世纪婚魇(台)/致命邀请/新娘/The Bride
◎片  名 The Invitation
◎年  代 2022
◎产  地 美国
◎类  别 惊悚/恐怖
◎语  言 英语
◎上映日期 2022-08-24(法国)/2022-08-26(美国)
◎IMDb评分  5.3/10 from 4310 users
◎IMDb链接  https://www.imdb.com/title/tt12873562/
◎豆瓣评分 5.1/10 from 209 users
◎豆瓣链接 https://movie.douban.com/subject/35465747/
◎导  演 杰西卡·M·汤普森 Jessica M. Thompson
◎编  剧 布莱尔·巴特勒 Blair Butler / 杰西卡·M·汤普森 Jessica M. Thompson
◎主  演 娜塔莉·伊曼纽尔 Nathalie Emmanuel
       托马斯·多赫蒂 Thomas Doherty
       斯蒂芬妮·科内柳森 Stephanie Corneliussen
       阿拉娜·博登 Alana Boden
       西恩·帕特维 Sean Pertwee
       休·斯金纳 Hugh Skinner
       维拉格·巴拉尼 Virág Bárány
       考特尼·泰勒 Courtney Taylor
       卡塔·萨博 Kata Sarbó
       伊丽莎白·康塞尔 Elizabeth Counsell
       斯科特·亚历山大·杨 Scott Alexander Young
       杰瑞米·惠勒 Jeremy Wheeler
       卡罗尔·安·克劳馥 Carol Ann Crawford
       克里斯蒂娜·格蕾丝·萨尔科 Christine Grace Szarko


◎简  介


  该片故事灵感来自于布莱姆·斯托克的经典小说《德古拉》,是一部当代恐怖惊悚片,讲述一个年轻女子因被追求而变得神魂颠倒,但她意识到,一个哥特式的阴谋正在发生。

Video
ID : 1
Format : HEVC
Format/Info : High Efficiency Video Coding
Format profile : Main 10@L5@High
HDR format : SMPTE ST 2086, HDR10 compatible
Codec ID : V_MPEGH/ISO/HEVC
Duration : 1 h 45 min
Bit rate : 24.2 Mb/s
Width : 3 840 pixels
Height : 2 064 pixels
Display aspect ratio : 1.85:1
Frame rate mode : Constant
Frame rate : 23.976 FPS
Color space : YUV
Chroma subsampling : 4:2:0 (Type 2)
Bit depth : 10 bits
Bits/(Pixel*Frame) : 0.127
Stream size : 17.9 GiB (98%)
Language : English
Default : Yes
Forced : No
Color range : Limited
Color primaries : BT.2020
Transfer characteristics : PQ
Matrix coefficients : BT.2020 non-constant
Mastering display color primaries : BT.2020
Mastering display luminance : min: 0.0050 cd/m2, max: 1000 cd/m2
Maximum Content Light Level : 366 cd/m2
Maximum Frame-Average Light Level : 129 cd/m2

Audio
ID : 2
Format : AC-3
Format/Info : Audio Coding 3
Commercial name : Dolby Digital
Codec ID : A_AC3
Duration : 1 h 45 min
Bit rate mode : Constant
Bit rate : 384 kb/s
Channel(s) : 6 channels
Channel layout : L R C LFE Ls Rs
Sampling rate : 48.0 kHz
Frame rate : 31.250 FPS (1536 SPF)
Compression mode : Lossy
Stream size : 291 MiB (2%)
Language : English
Service kind : Complete Main
Default : Yes
Forced : No

Text #1
ID : 3
Format : UTF-8
Codec ID : S_TEXT/UTF8
Codec ID/Info : UTF-8 Plain Text
Duration : 1 h 44 min
Bit rate : 51 b/s
Frame rate : 0.232 FPS
Count of elements : 1455
Stream size : 39.6 KiB (0%)
Title : SDH
Language : English
Default : No
Forced : No

Text #2
ID : 4
Format : UTF-8
Codec ID : S_TEXT/UTF8
Codec ID/Info : UTF-8 Plain Text
Duration : 1 h 40 min
Bit rate : 49 b/s
Frame rate : 0.213 FPS
Count of elements : 1283
Stream size : 36.6 KiB (0%)
Language : English
Default : No
Forced : No

Text #3
ID : 5
Format : UTF-8
Codec ID : S_TEXT/UTF8
Codec ID/Info : UTF-8 Plain Text
Duration : 1 h 39 min
Bit rate : 46 b/s
Frame rate : 0.190 FPS
Count of elements : 1133
Stream size : 33.4 KiB (0%)
Language : English
Default : No
Forced : No

Text #4
ID : 6
Format : UTF-8
Codec ID : S_TEXT/UTF8
Codec ID/Info : UTF-8 Plain Text
Duration : 1 h 44 min
Bit rate : 40 b/s
Frame rate : 0.181 FPS
Count of elements : 1133
Stream size : 30.8 KiB (0%)
Language : French
Default : No
Forced : No

Menu
00:00:00.000 : en:Chapter 01
00:06:58.626 : en:Chapter 02
00:12:50.603 : en:Chapter 03
00:18:24.270 : en:Chapter 04
00:24:53.493 : en:Chapter 05
00:31:55.290 : en:Chapter 06
00:36:46.289 : en:Chapter 07
00:43:21.726 : en:Chapter 08
00:49:49.698 : en:Chapter 09
00:57:54.557 : en:Chapter 10
01:04:27.492 : en:Chapter 11
01:11:21.072 : en:Chapter 12
01:17:56.468 : en:Chapter 13
01:26:06.458 : en:Chapter 14
01:30:56.373 : en:Chapter 15
01:39:05.153 : en:Chapter 16

资源速度为零或资源敏感被和谐时,推荐使用qBittorrent等下载软件,有条件的推荐115更好的下载软件!

下载地址:

游客,如果您要查看本帖隐藏内容请回复
游客,如果您要查看本帖隐藏内容请回复

游客,如果您要查看本帖隐藏内容请回复

游客,如果您要查看本帖隐藏内容请回复






上一篇:星运里的错 [简繁粤]/The Fault in Our Stars (2014) 4K高清版本下载
下一篇:菲利普船长[简繁中字] / Captain Phillips (2013) 4K高清版本下载
回复

使用道具 举报

44

主题

1497

帖子

4335

积分

4K家园VIP

Rank: 9Rank: 9Rank: 9

积分
4335
发表于 2022-9-17 13:11:42 | 显示全部楼层
1v1飘过
回复 支持 反对

使用道具 举报

0

主题

1409

帖子

4073

积分

4K家园VIP

Rank: 9Rank: 9Rank: 9

积分
4073
发表于 2022-9-17 19:58:45 | 显示全部楼层
打酱油的人拉,回复下赚取积分
回复 支持 反对

使用道具 举报

0

主题

55

帖子

780

积分

新手上路

Rank: 1

积分
780
发表于 2022-9-23 08:28:41 | 显示全部楼层
看禁闻http://v.ht/tttd 点击访问
回复

使用道具 举报

您需要登录后才可以回帖 登录 | 立即注册

本版积分规则

精彩图文
Archiver|手机版|TAG|Sitemap|新帖|专题|联系我们:邮箱: 4kjia.com@gmail.com   

4k家园   ©2019