[4K电影] 菲利普船长[简繁中字] / Captain Phillips (2013) 4K高清版本下载

[复制链接]

2327

主题

2476

帖子

1万

积分

超级版主

Rank: 8Rank: 8

积分
17940
 楼主| 发表于 2022-9-19 09:40:20 | 显示全部楼层 |阅读模式
QQ图片20220919092943_副本.png

◎译  名 菲利普船长/盗海狙击(港)/怒海劫(台)/怒海求生(港)/菲利普斯船长
◎片  名 Captain Phillips
◎年  代 2013
◎产  地 美国
◎类  别 剧情/传记/犯罪/冒险
◎语  言 英语/索马里语
◎上映日期 2013-09-27(纽约电影节)/2013-10-11(美国)
◎IMDb评分 7.8/10 from 457388 users 更新 : 2022-09-17
◎IMDb链接 http://www.imdb.com/title/tt1535109/
◎豆瓣评分 8.1/10 from 102949 users 更新 : 2022-09-19
◎豆瓣链接 https://movie.douban.com/subject/4116480/
◎片  长 134分钟
◎导  演 保罗·格林格拉斯 Paul Greengrass
◎主  演 汤姆·汉克斯 Tom Hanks
      巴克德·阿巴蒂 Barkhad Abdi
      巴哈德·阿布迪 Barkhad Abdirahman
      法塞尔·阿迈德 Faysal Ahmed
      马哈特·M·阿里 Mahat M. Ali
      迈克尔·切鲁斯 Michael Chernus
      克里·约翰逊 Corey Johnson
      马克斯·马蒂尼 Max Martini
      克里斯·马尔基 Chris Mulkey
      尤尔·瓦斯克斯 Yul Vazquez
      大卫·沃肖夫斯基 David Warshofsky

◎简  介

  2009年,美国货轮“马士基·阿拉巴马”号在船长理查德·菲利普(汤姆·汉克斯 Tom Hanks 饰)的带领下执行在非洲角区域的货物运输任务。该次任务的航线途径海盗猖獗的索马里地区海域。虽然菲利普船长和船员都进行过抗击海盗的训练和演习,但是他们完全没有料到在启程不久就遭遇了四名索马里海盗的登船袭击。菲利普船长在保护船员和货物的搏斗中不幸被海盗劫为人质并带离货船。美国海军等部门接到情报后立即展开大规模营救菲利普船长的行动。
  本片根据真实事件改编。这是近200年以来美国船只首次遭到海盗的劫持。

◎获奖情况

  第86届奥斯卡金像奖  (2014)
  最佳影片(提名) 迈克·德·鲁卡 / 斯科特·鲁丁 / 达纳·布努内蒂
  最佳男配角(提名) 巴克德·阿巴蒂
  最佳改编剧本(提名) 比利·雷 / 斯蒂芬·泰尔利 / 理查德·菲利普
  最佳剪辑(提名) 克里斯多福·劳斯
  最佳混音(提名) Chris Burdon / 马克·泰勒 / Chris Munro / Mike Prestwood Smith
  最佳音效剪辑(提名) 奥利弗·塔尔尼

  第71届金球奖  (2014)
  电影类 最佳剧情片(提名)
  电影类 最佳导演(提名) 保罗·格林格拉斯
  电影类 剧情片最佳男主角(提名) 汤姆·汉克斯
  电影类 最佳男配角(提名) 巴克德·阿巴蒂

  第37届日本电影学院奖  (2014)
  最佳外语片(提名)

  第23届MTV电影奖  (2014)
  MTV电影奖 最佳反派(提名) 巴克德·阿巴蒂

  第66届美国导演工会奖  (2014)
  最佳电影导演(提名) 保罗·格林格拉斯

  第20届美国演员工会奖  (2014)
  电影奖 最佳男主角(提名) 汤姆·汉克斯
  电影奖 最佳男配角(提名) 巴克德·阿巴蒂

  第66届美国编剧工会奖  (2014)
  电影奖 最佳改编剧本 比利·雷

  第25届美国制片人工会奖  (2014)
  最佳电影制片人奖(提名) 迈克·德·鲁卡 / 斯科特·鲁丁 / 达纳·布努内蒂

  第28届美国摄影协会奖  (2014)
  电影长片最佳摄影(提名) 巴里·埃克劳德

  第64届美国剪辑工会奖  (2014)
  剧情片最佳剪辑 克里斯多福·劳斯

  第61届美国音效剪辑协会奖  (2014)
  金卷轴奖 最佳电影音效剪辑(提名) 马克·泰勒 / 奥利弗·塔尔尼 / Dillon Bennett / Jason Swanscott / Michael Fentum / Peter Burgis
  金卷轴奖 最佳电影对白剪辑 Bjorn Ole Schroeder / 奥利弗·塔尔尼 / Simon Chase

  第50届美国声音效果协会奖  (2014)
  真人电影最佳音效(提名) Chris Munro / Chris Burdon / Glen Gathard / Mike Prestwood Smith / 马克·泰勒

  第19届美国评论家选择电影奖  (2014)
  最佳影片(提名)
  最佳导演(提名) 保罗·格林格拉斯
  最佳男主角(提名) 汤姆·汉克斯
  最佳男配角(提名) 巴克德·阿巴蒂
  最佳改编剧本(提名) 比利·雷 / 斯蒂芬·泰尔利 / 理查德·菲利普
  最佳剪辑(提名) 克里斯多福·劳斯

  第14届美国电影学会奖  (2013)
  年度佳片

  第18届金卫星奖  (2014)
  电影部门 最佳影片(提名)
  电影部门 最佳导演(提名) 保罗·格林格拉斯
  电影部门 最佳男主角(提名) 汤姆·汉克斯
  电影部门 最佳改编剧本(提名) 比利·雷
  电影部门 最佳音效(提名) Chris Burdon / 马克·泰勒 / 奥利弗·塔尔尼

  第17届好莱坞电影奖  (2013)
  年度制片 迈克·德·鲁卡

  第48届美国国家影评人协会奖  (2014)
  最佳男配角(提名) 巴克德·阿巴蒂

  第12届华盛顿影评人协会奖  (2013)
  最佳改编剧本(提名)

  第34届伦敦影评人协会奖  (2014)
  年度导演(提名) 保罗·格林格拉斯
  年度男主角(提名) 汤姆·汉克斯
  年度男配角 巴克德·阿巴蒂

  第34届波士顿影评人协会奖  (2013)
  最佳男配角(提名) 巴克德·阿巴蒂

  第18届圣地亚哥影评人协会奖  (2013)
  最佳男主角(提名) 汤姆·汉克斯
  最佳改编剧本(提名) 比利·雷
  最佳剪辑(提名) 克里斯多福·劳斯

  第13届凤凰城影评人协会奖  (2013)
  最佳导演(提名) 保罗·格林格拉斯
  最佳男主角(提名) 汤姆·汉克斯
  最佳改编剧本(提名) 比利·雷
  最佳剪辑(提名) 克里斯多福·劳斯
  十佳影片

  第22届东南影评人协会奖  (2013)
  十大佳片

  第17届美国在线影评人协会奖  (2013)
  最佳男主角(提名) 汤姆·汉克斯
  最佳男配角(提名) 巴克德·阿巴蒂

  第4届豆瓣电影鑫像奖  (2014)
  鑫豆单元 最佳男演员(外语)(提名) 汤姆·汉克斯

Video
ID : 1
Format : HEVC
Format/Info : High Efficiency Video Coding
Format profile : Main 10@L5@High
Codec ID : V_MPEGH/ISO/HEVC
Duration : 2 h 14 min
Bit rate : 24.0 Mb/s
Width : 3 840 pixels
Height : 2 160 pixels
Display aspect ratio : 16:9
Frame rate mode : Constant
Frame rate : 23.976 (24000/1001) FPS
Color space : YUV
Chroma subsampling : 4:2:0 (Type 2)
Bit depth : 10 bits
Bits/(Pixel*Frame) : 0.121
Stream size : 22.5 GiB (88%)
Language : English
Default : Yes
Forced : No
Color range : Limited
Color primaries : BT.709
Transfer characteristics : BT.709
Matrix coefficients : BT.709

Audio #1
ID : 2
ID in the original source medium : 4352 (0x1100)
Format : DTS XLL
Format/Info : Digital Theater Systems
Commercial name : DTS-HD Master Audio
Codec ID : A_DTS
Duration : 2 h 14 min
Bit rate mode : Variable
Bit rate : 2 779 kb/s
Channel(s) : 6 channels
Channel layout : C L R Ls Rs LFE
Sampling rate : 48.0 kHz
Frame rate : 93.750 FPS (512 SPF)
Bit depth : 24 bits
Compression mode : Lossless
Stream size : 2.60 GiB (10%)
Title : DTS-HD Master Audio / 5.1 / 48 kHz / 2779 kbps / 24-bit
Language : English
Default : Yes
Forced : No
Original source medium : Blu-ray

Audio #2
ID : 3
Format : AC-3
Format/Info : Audio Coding 3
Commercial name : Dolby Digital
Codec ID : A_AC3
Duration : 2 h 14 min
Bit rate mode : Constant
Bit rate : 384 kb/s
Channel(s) : 6 channels
Channel layout : L R C LFE Ls Rs
Sampling rate : 48.0 kHz
Frame rate : 31.250 FPS (1536 SPF)
Compression mode : Lossy
Stream size : 368 MiB (1%)
Title : Compatibilty
Language : English
Service kind : Complete Main
Default : No
Forced : No

Audio #3
ID : 4
ID in the original source medium : 4356 (0x1104)
Format : AC-3
Format/Info : Audio Coding 3
Commercial name : Dolby Digital
Format settings : Dolby Surround
Codec ID : A_AC3
Duration : 2 h 14 min
Bit rate mode : Constant
Bit rate : 192 kb/s
Channel(s) : 2 channels
Channel layout : L R
Sampling rate : 48.0 kHz
Frame rate : 31.250 FPS (1536 SPF)
Compression mode : Lossy
Stream size : 184 MiB (1%)
Title : Audio commentary with director Paul Greengrass
Language : English
Service kind : Complete Main
Default : No
Forced : No
Original source medium : Blu-ray

Text #1
ID : 5
Format : UTF-8
Codec ID : S_TEXT/UTF8
Codec ID/Info : UTF-8 Plain Text
Duration : 1 h 56 min
Bit rate : 9 b/s
Frame rate : 0.049 FPS
Count of elements : 339
Stream size : 8.35 KiB (0%)
Title : Forced
Language : English
Default : Yes
Forced : Yes

Text #2
ID : 6
Format : UTF-8
Codec ID : S_TEXT/UTF8
Codec ID/Info : UTF-8 Plain Text
Duration : 2 h 4 min
Bit rate : 56 b/s
Frame rate : 0.214 FPS
Count of elements : 1606
Stream size : 51.4 KiB (0%)
Language : English
Default : No
Forced : No

Text #3
ID : 7
Format : UTF-8
Codec ID : S_TEXT/UTF8
Codec ID/Info : UTF-8 Plain Text
Duration : 2 h 8 min
Bit rate : 62 b/s
Frame rate : 0.242 FPS
Count of elements : 1863
Stream size : 58.7 KiB (0%)
Title : SDH
Language : English
Default : No
Forced : No

Text #4
ID : 8
Format : UTF-8
Codec ID : S_TEXT/UTF8
Codec ID/Info : UTF-8 Plain Text
Duration : 2 h 6 min
Bit rate : 72 b/s
Frame rate : 0.222 FPS
Count of elements : 1690
Stream size : 66.9 KiB (0%)
Language : Arabic
Default : No
Forced : No

Text #5
ID : 9
Format : UTF-8
Codec ID : S_TEXT/UTF8
Codec ID/Info : UTF-8 Plain Text
Duration : 2 h 6 min
Bit rate : 48 b/s
Frame rate : 0.200 FPS
Count of elements : 1526
Stream size : 44.6 KiB (0%)
Title : 简体
Language : 中文
Default : No
Forced : No

Text #6
ID : 10
Format : UTF-8
Codec ID : S_TEXT/UTF8
Codec ID/Info : UTF-8 Plain Text
Duration : 2 h 7 min
Bit rate : 40 b/s
Frame rate : 0.202 FPS
Count of elements : 1539
Stream size : 37.9 KiB (0%)
Title : 繁体
Language : 中文
Default : No
Forced : No


Text #7
ID : 11
Format : UTF-8
Codec ID : S_TEXT/UTF8
Codec ID/Info : UTF-8 Plain Text
Duration : 2 h 13 min
Bit rate : 65 b/s
Frame rate : 0.196 FPS
Count of elements : 1567
Stream size : 64.5 KiB (0%)
Language : Czech
Default : No
Forced : No

Text #8
ID : 12
Format : UTF-8
Codec ID : S_TEXT/UTF8
Codec ID/Info : UTF-8 Plain Text
Duration : 2 h 7 min
Bit rate : 48 b/s
Frame rate : 0.185 FPS
Count of elements : 1411
Stream size : 44.8 KiB (0%)
Language : Danish
Default : No
Forced : No

Text #9
ID : 13
Format : UTF-8
Codec ID : S_TEXT/UTF8
Codec ID/Info : UTF-8 Plain Text
Duration : 2 h 6 min
Bit rate : 52 b/s
Frame rate : 0.194 FPS
Count of elements : 1477
Stream size : 48.9 KiB (0%)
Language : German
Default : No
Forced : No

Text #10
ID : 14
Format : UTF-8
Codec ID : S_TEXT/UTF8
Codec ID/Info : UTF-8 Plain Text
Duration : 2 h 6 min
Bit rate : 106 b/s
Frame rate : 0.201 FPS
Count of elements : 1531
Stream size : 98.6 KiB (0%)
Language : Greek
Default : No
Forced : No

Text #11
ID : 15
Format : UTF-8
Codec ID : S_TEXT/UTF8
Codec ID/Info : UTF-8 Plain Text
Duration : 2 h 13 min
Bit rate : 49 b/s
Frame rate : 0.189 FPS
Count of elements : 1509
Stream size : 48.7 KiB (0%)
Title : Latin American
Language : Spanish
Default : No
Forced : No

Text #12
ID : 16
Format : UTF-8
Codec ID : S_TEXT/UTF8
Codec ID/Info : UTF-8 Plain Text
Duration : 2 h 13 min
Bit rate : 49 b/s
Frame rate : 0.203 FPS
Count of elements : 1625
Stream size : 48.8 KiB (0%)
Language : Spanish
Default : No
Forced : No

Text #13
ID : 17
Format : UTF-8
Codec ID : S_TEXT/UTF8
Codec ID/Info : UTF-8 Plain Text
Duration : 2 h 13 min
Bit rate : 47 b/s
Frame rate : 0.180 FPS
Count of elements : 1438
Stream size : 46.3 KiB (0%)
Language : Finnish
Default : No
Forced : No

Text #14
ID : 18
Format : UTF-8
Codec ID : S_TEXT/UTF8
Codec ID/Info : UTF-8 Plain Text
Duration : 2 h 7 min
Bit rate : 41 b/s
Frame rate : 0.209 FPS
Count of elements : 1596
Stream size : 38.7 KiB (0%)
Language : French
Default : No
Forced : No

Text #15
ID : 19
Format : UTF-8
Codec ID : S_TEXT/UTF8
Codec ID/Info : UTF-8 Plain Text
Duration : 2 h 7 min
Bit rate : 73 b/s
Frame rate : 0.215 FPS
Count of elements : 1636
Stream size : 68.6 KiB (0%)
Language : Hebrew
Default : No
Forced : No

Text #16
ID : 20
Format : UTF-8
Codec ID : S_TEXT/UTF8
Codec ID/Info : UTF-8 Plain Text
Duration : 2 h 13 min
Bit rate : 51 b/s
Frame rate : 0.208 FPS
Count of elements : 1665
Stream size : 50.4 KiB (0%)
Language : Indonesian
Default : No
Forced : No

Text #17
ID : 21
Format : UTF-8
Codec ID : S_TEXT/UTF8
Codec ID/Info : UTF-8 Plain Text
Duration : 2 h 13 min
Bit rate : 43 b/s
Frame rate : 0.181 FPS
Count of elements : 1447
Stream size : 42.8 KiB (0%)
Language : Italian
Default : No
Forced : No

Text #18
ID : 22
Format : UTF-8
Codec ID : S_TEXT/UTF8
Codec ID/Info : UTF-8 Plain Text
Duration : 2 h 13 min
Bit rate : 44 b/s
Frame rate : 0.187 FPS
Count of elements : 1495
Stream size : 43.7 KiB (0%)
Language : Korean
Default : No
Forced : No

Text #19
ID : 23
Format : UTF-8
Codec ID : S_TEXT/UTF8
Codec ID/Info : UTF-8 Plain Text
Duration : 2 h 13 min
Bit rate : 43 b/s
Frame rate : 0.151 FPS
Count of elements : 1207
Stream size : 42.5 KiB (0%)
Language : Dutch
Default : No
Forced : No

Text #20
ID : 24
Format : UTF-8
Codec ID : S_TEXT/UTF8
Codec ID/Info : UTF-8 Plain Text
Duration : 2 h 13 min
Bit rate : 51 b/s
Frame rate : 0.181 FPS
Count of elements : 1446
Stream size : 50.0 KiB (0%)
Language : Norwegian
Default : No
Forced : No

Text #21
ID : 25
Format : UTF-8
Codec ID : S_TEXT/UTF8
Codec ID/Info : UTF-8 Plain Text
Duration : 2 h 13 min
Bit rate : 40 b/s
Frame rate : 0.179 FPS
Count of elements : 1433
Stream size : 39.3 KiB (0%)
Language : Polish
Default : No
Forced : No

Text #22
ID : 26
Format : UTF-8
Codec ID : S_TEXT/UTF8
Codec ID/Info : UTF-8 Plain Text
Duration : 2 h 13 min
Bit rate : 48 b/s
Frame rate : 0.188 FPS
Count of elements : 1503
Stream size : 47.3 KiB (0%)
Title : Brazilian
Language : Portuguese
Default : No
Forced : No

Text #23
ID : 27
Format : UTF-8
Codec ID : S_TEXT/UTF8
Codec ID/Info : UTF-8 Plain Text
Duration : 2 h 13 min
Bit rate : 77 b/s
Frame rate : 0.209 FPS
Count of elements : 1672
Stream size : 75.7 KiB (0%)
Language : Russian
Default : No
Forced : No

Text #24
ID : 28
Format : UTF-8
Codec ID : S_TEXT/UTF8
Codec ID/Info : UTF-8 Plain Text
Duration : 2 h 13 min
Bit rate : 43 b/s
Frame rate : 0.145 FPS
Count of elements : 1159
Stream size : 42.1 KiB (0%)
Language : Swedish
Default : No
Forced : No

Text #25
ID : 29
Format : UTF-8
Codec ID : S_TEXT/UTF8
Codec ID/Info : UTF-8 Plain Text
Duration : 2 h 7 min
Bit rate : 113 b/s
Frame rate : 0.205 FPS
Count of elements : 1564
Stream size : 106 KiB (0%)
Language : Thai
Default : No
Forced : No

Text #26
ID : 30
Format : UTF-8
Codec ID : S_TEXT/UTF8
Codec ID/Info : UTF-8 Plain Text
Duration : 2 h 13 min
Bit rate : 51 b/s
Frame rate : 0.200 FPS
Count of elements : 1600
Stream size : 50.0 KiB (0%)
Language : Turkish
Default : No
Forced : No

Text #27
ID : 31
Format : UTF-8
Codec ID : S_TEXT/UTF8
Codec ID/Info : UTF-8 Plain Text
Duration : 2 h 7 min
Bit rate : 37 b/s
Frame rate : 0.214 FPS
Count of elements : 1628
Stream size : 34.8 KiB (0%)
Title : Traditional
Language : Chinese
Default : No
Forced : No

Text #28
ID : 32
Format : UTF-8
Codec ID : S_TEXT/UTF8
Codec ID/Info : UTF-8 Plain Text
Duration : 2 h 8 min
Bit rate : 59 b/s
Frame rate : 0.219 FPS
Count of elements : 1683
Stream size : 56.2 KiB (0%)
Title : SDH
Language : English
Default : No
Forced : No

Menu
00:00:00.000 : en:Chapter 01
00:09:12.000 : en:Chapter 02
00:15:29.000 : en:Chapter 03
00:22:47.000 : en:Chapter 04
00:30:09.000 : en:Chapter 05
00:39:36.000 : en:Chapter 06
00:47:58.000 : en:Chapter 07
00:58:21.000 : en:Chapter 08
01:04:32.000 : en:Chapter 09
01:12:58.000 : en:Chapter 10
01:19:09.000 : en:Chapter 11
01:25:36.000 : en:Chapter 12
01:34:08.000 : en:Chapter 13
01:41:38.000 : en:Chapter 14
01:51:25.000 : en:Chapter 15
02:02:31.000 : en:Chapter 16

资源速度为零或资源敏感被和谐时,推荐使用qBittorrent等下载软件,有条件的推荐115更好的下载软件!

下载地址:


游客,如果您要查看本帖隐藏内容请回复






上一篇:邀请函 / The Invitation (2022) 4K高清版本下载
下一篇:为耶稣鸣喇叭,拯救你的灵魂 (2013) 4K高清版本下载
回复

使用道具 举报

1

主题

1522

帖子

4416

积分

4K家园VIP

Rank: 9Rank: 9Rank: 9

积分
4416
发表于 2022-9-19 09:40:24 | 显示全部楼层
为保住菊花,这个一定得回复!
回复 支持 反对

使用道具 举报

0

主题

8663

帖子

2万

积分

4K家园VIP

Rank: 9Rank: 9Rank: 9

积分
20189
发表于 2022-9-19 09:44:18 | 显示全部楼层
菲利普船長[簡繁]4k
回复 支持 反对

使用道具 举报

0

主题

1430

帖子

4110

积分

4K家园VIP

Rank: 9Rank: 9Rank: 9

积分
4110
发表于 2022-9-19 10:14:43 | 显示全部楼层
4K版的应该更清晰吧
回复 支持 反对

使用道具 举报

37

主题

1423

帖子

4085

积分

4K家园VIP

Rank: 9Rank: 9Rank: 9

积分
4085
发表于 2022-9-19 10:59:46 | 显示全部楼层
元芳你怎么看?
回复 支持 反对

使用道具 举报

0

主题

475

帖子

2895

积分

注册会员

Rank: 2

积分
2895
发表于 2022-9-19 11:48:09 | 显示全部楼层
谢谢楼主分享
回复 支持 反对

使用道具 举报

5

主题

1706

帖子

4724

积分

4K家园VIP

Rank: 9Rank: 9Rank: 9

积分
4724
发表于 2022-9-19 13:28:47 来自手机 | 显示全部楼层
广告位,,坐下看看
回复 支持 反对

使用道具 举报

3

主题

1622

帖子

4462

积分

4K家园VIP

Rank: 9Rank: 9Rank: 9

积分
4462
发表于 2022-9-19 14:15:56 | 显示全部楼层
元芳你怎么看?
回复 支持 反对

使用道具 举报

0

主题

5

帖子

60

积分

新手上路

Rank: 1

积分
60
发表于 2022-9-19 22:04:47 | 显示全部楼层
菲利普船长[简繁中字]
回复 支持 反对

使用道具 举报

0

主题

3

帖子

16

积分

新手上路

Rank: 1

积分
16
发表于 2022-9-19 22:35:00 | 显示全部楼层
kankan,不知道好不好看
回复 支持 反对

使用道具 举报

您需要登录后才可以回帖 登录 | 立即注册

本版积分规则

精彩图文
Archiver|手机版|TAG|Sitemap|新帖|专题|联系我们:邮箱: 4kjia.com@gmail.com   

4k家园   ©2019