[4K UHD 蓝光原盘] 指环王1:护戒使者 [简繁中字] (2001) 4K蓝光REMUX版本下载

[复制链接]

1916

主题

2005

帖子

2万

积分

超级版主

Rank: 8Rank: 8

积分
20377
 楼主| 发表于 2022-9-21 09:47:47 | 显示全部楼层 |阅读模式
本帖最后由 没完没了 于 2022-10-4 11:11 编辑

124345dbhh0mhox0mhyhsc.jpg

◎译  名 指环王1:魔戒再现/指环王I:护戒使者/魔戒1:护戒联盟/魔戒首部曲:魔戒现身
◎片  名 The Lord of the Rings: The Fellowship of the Ring
◎年  代 2001
◎产  地 新西兰/美国
◎类  别 剧情/动作/奇幻/冒险
◎语  言 英语/辛达林语
◎整理连接 http://www.4kjia.com/
◎上映日期   2001-12-19(美国)/2002-04-04(中国大陆)
◎IMDb评分 8.8/10 from 1841014 users 更新 : 2022-09-1
◎IMDb链接 https://www.imdb.com/title/tt0120737/
◎豆瓣评分 9.1/10 from 792047 users 更新 : 2022-09-21
◎豆瓣链接 https://movie.douban.com/subject/1291571/
◎片  长 3 h 48 min(加长版)
◎导  演 彼得·杰克逊 Peter Jackson
◎编  剧 弗兰·威尔士 Fran Walsh / Philippa Boyens / 彼得·杰克逊 Peter Jackson / 托尔金 J.R.R. Tolkien
◎主  演 伊利亚·伍德 Elijah Wood
       西恩·奥斯汀 Sean Astin
       伊恩·麦克莱恩 Ian McKellen
       维果·莫腾森 Viggo Mortensen
       奥兰多·布鲁姆 Orlando Bloom
       凯特·布兰切特 Cate Blanchett
       肖恩·宾 Sean Bean
       克里斯托弗·李 Christopher Lee
       雨果·维文 Hugo Weaving
       丽芙·泰勒 Liv Tyler
       安迪·瑟金斯 Andy Serkis
       伊安·霍姆 Ian Holm
       多米尼克·莫纳汉 Dominic Monaghan
       萨拉·贝克 Sala Baker
       约翰·瑞斯-戴维斯 John Rhys-Davies

◎简  介

  比尔博•巴金斯是100多岁的哈比人,住在故乡夏尔,生性喜欢冒险,在年轻时的一次探险经历中,他从怪物咕噜手中得到了至尊魔戒,这枚戒指是黑暗魔君索伦打造的至尊魔戒,拥有奴役世界的邪恶力量,能够统领其他几枚力量之戒,在3000年前的人类联盟和半兽人大军的战役中,联盟取得了胜利,并得到了至尊魔戒,数千年的辗转后,魔戒落到咕噜手中,被比尔博碰巧得到。
  因为和魔戒的朝夕相处,比尔博的心性也受到了影响,在他111岁的生日宴会上,他决定把一切都留给侄子佛罗多(伊莱贾•伍德 饰),继续冒险。
  比尔博的好朋友灰袍巫师甘道夫(伊恩•麦凯伦 饰)知道至尊魔戒的秘密,同时,黑暗魔君索伦已经知道他的魔戒落在哈比族的手中。索伦正在重新建造要塞巴拉多,集结无数的半兽人,准备以大军 夺取魔戒,并且征服全世界。
  甘道夫说服佛罗多将魔戒护送到精灵王国瑞文希尔,佛罗多在好朋友山姆、皮平和梅利的陪同下,在跃马旅店得到了刚铎王子阿拉贡的帮助,历经艰难,终于到达了精灵王国。
  然而,精灵族并不愿意保管这个邪恶的至尊魔戒,中土各国代表开会讨论,达成意见,准备将至尊魔戒送到末日山脉的烈焰中彻底销毁,佛罗多挺身而出接受了这个任务,这次,陪伴他的除了三个好朋友,还有甘道夫、阿拉贡、精灵莱戈拉斯(奥兰多•布鲁姆 饰)、人类博罗米尔、侏儒金利。
  一路上,魔戒远征军除了要逃避索伦爪牙黑骑士和半兽人的追杀之外,更要抵抗至尊魔界本身的邪恶诱惑,前途困难重重。

Video
ID : 1
Format : HEVC
Format/Info : High Efficiency Video Coding
Format profile : Main 10@L5.1@High
HDR format : Dolby Vision, Version 1.0, dvhe.07.06, BL+EL+RPU, Blu-ray compatible / SMPTE ST 2086, HDR10 compatible
Codec ID : V_MPEGH/ISO/HEVC
Duration : 3 h 48 min
Bit rate : 67.9 Mb/s
Width : 3 840 pixels
Height : 2 160 pixels
Display aspect ratio : 16:9
Frame rate mode : Constant
Frame rate : 23.976 (24000/1001) FPS
Color space : YUV
Chroma subsampling : 4:2:0 (Type 2)
Bit depth : 10 bits
Bits/(Pixel*Frame) : 0.342
Stream size : 108 GiB (78%)
Default : Yes
Forced : No
Color range : Limited
Color primaries : BT.2020
Transfer characteristics : PQ
Matrix coefficients : BT.2020 non-constant
Mastering display color primaries : Display P3
Mastering display luminance : min: 0.0050 cd/m2, max: 4000 cd/m2
Maximum Content Light Level : 602 cd/m2
Maximum Frame-Average Light Level : 184 cd/m2

Audio #1
ID : 2
Format : MLP FBA 16-ch
Format/Info : Meridian Lossless Packing FBA with 16-channel presentation
Commercial name : Dolby TrueHD with Dolby Atmos
Codec ID : A_TRUEHD
Duration : 3 h 48 min
Bit rate mode : Variable
Bit rate : 2 994 kb/s
Maximum bit rate : 4 992 kb/s
Channel(s) : 8 channels
Channel layout : L R C LFE Ls Rs Lb Rb
Sampling rate : 48.0 kHz
Frame rate : 1 200.000 FPS (40 SPF)
Compression mode : Lossless
Stream size : 4.78 GiB (3%)
Title : TrueHD 7.1 Atmos
Language : English
Default : Yes
Forced : No
Number of dynamic objects : 11
Bed channel count : 1 channel
Bed channel configuration : LFE

Audio #2
ID : 3
Format : DTS XLL
Format/Info : Digital Theater Systems
Commercial name : DTS-HD Master Audio
Codec ID : A_DTS
Duration : 3 h 48 min
Bit rate mode : Variable
Bit rate : 3 830 kb/s
Channel(s) : 8 channels
Channel layout : C L R LFE Lb Rb Lss Rss
Sampling rate : 48.0 kHz
Frame rate : 93.750 FPS (512 SPF)
Bit depth : 24 bits
Compression mode : Lossless
Stream size : 6.11 GiB (4%)
Title : DTS-HD MA 7.1
Language : English
Default : No
Forced : No

Audio #3
ID : 4
Format : AC-3
Format/Info : Audio Coding 3
Commercial name : Dolby Digital
Format settings : Dolby Surround EX
Codec ID : A_AC3
Duration : 3 h 48 min
Bit rate mode : Constant
Bit rate : 448 kb/s
Channel(s) : 6 channels
Channel layout : L R C LFE Ls Rs
Sampling rate : 48.0 kHz
Frame rate : 31.250 FPS (1536 SPF)
Compression mode : Lossy
Stream size : 732 MiB (0%)
Title : DD 5.1
Language : English
Service kind : Complete Main
Default : No
Forced : No

Audio #4
ID : 5
Format : DTS XLL
Format/Info : Digital Theater Systems
Commercial name : DTS-HD Master Audio
Codec ID : A_DTS
Duration : 3 h 48 min
Bit rate mode : Variable
Bit rate : 2 341 kb/s
Channel(s) : 6 channels
Channel layout : C L R Ls Rs LFE
Sampling rate : 48.0 kHz
Frame rate : 93.750 FPS (512 SPF)
Bit depth : 16 bits
Compression mode : Lossless
Stream size : 3.73 GiB (3%)
Title : DTS-HD MA 5.1
Language : French
Default : No
Forced : No

Audio #5
ID : 6
Format : DTS ES XXCH XLL
Format/Info : Digital Theater Systems
Commercial name : DTS-HD Master Audio
Codec ID : A_DTS
Duration : 3 h 48 min
Bit rate mode : Variable
Bit rate : 2 644 kb/s
Channel(s) : 7 channels
Channel layout : C L R Ls Rs LFE Cb
Sampling rate : 48.0 kHz
Frame rate : 93.750 FPS (512 SPF)
Bit depth : 16 bits
Compression mode : Lossless
Stream size : 4.22 GiB (3%)
Title : DTS-HD MA 6.1
Language : German
Default : No
Forced : No

Audio #6
ID : 7
Format : DTS ES XLL
Format/Info : Digital Theater Systems
Commercial name : DTS-HD Master Audio
Codec ID : A_DTS
Duration : 3 h 48 min
Bit rate mode : Variable
Bit rate : 2 140 kb/s
Channel(s) : 6 channels
Channel(s)_Original : 7 channels
ChannelLayout_Original : C L R Ls Rs LFE Cb
Sampling rate : 48.0 kHz
Frame rate : 93.750 FPS (512 SPF)
Bit depth : 16 bits
Compression mode : Lossless
Stream size : 3.41 GiB (2%)
Title : DTS-HD MA 5.1
Language : Italian
Default : No
Forced : No

Audio #7
ID : 8
Format : DTS ES XLL
Format/Info : Digital Theater Systems
Commercial name : DTS-HD Master Audio
Codec ID : A_DTS
Duration : 3 h 48 min
Bit rate mode : Variable
Bit rate : 2 176 kb/s
Channel(s) : 6 channels
Channel(s)_Original : 7 channels
ChannelLayout_Original : C L R Ls Rs LFE Cb
Sampling rate : 48.0 kHz
Frame rate : 93.750 FPS (512 SPF)
Bit depth : 16 bits
Compression mode : Lossless
Stream size : 3.47 GiB (2%)
Title : DTS-HD MA 5.1
Language : Spanish
Default : No
Forced : No

Audio #8
ID : 9
Format : DTS XLL
Format/Info : Digital Theater Systems
Commercial name : DTS-HD Master Audio
Codec ID : A_DTS
Duration : 3 h 48 min
Bit rate mode : Variable
Bit rate : 2 320 kb/s
Channel(s) : 6 channels
Channel layout : C L R Ls Rs LFE
Sampling rate : 48.0 kHz
Frame rate : 93.750 FPS (512 SPF)
Bit depth : 16 bits
Compression mode : Lossless
Stream size : 3.70 GiB (3%)
Title : DTS-HD MA 5.1
Language : Japanese
Default : No
Forced : No

Text #1
ID : 10
Format : UTF-8
Codec ID : S_TEXT/UTF8
Codec ID/Info : UTF-8 Plain Text
Duration : 3 h 19 min
Bit rate : 37 b/s
Frame rate : 0.135 FPS
Count of elements : 1621
Stream size : 54.5 KiB (0%)
Language : English
Default : Yes
Forced : No

Text #2
ID : 11
Format : UTF-8
Codec ID : S_TEXT/UTF8
Codec ID/Info : UTF-8 Plain Text
Duration : 3 h 19 min
Bit rate : 38 b/s
Frame rate : 0.144 FPS
Count of elements : 1728
Stream size : 56.6 KiB (0%)
Title : SDH
Language : English
Default : No
Forced : No

Text #3
ID : 12
Format : PGS
Muxing mode : zlib
Codec ID : S_HDMV/PGS
Codec ID/Info : Picture based subtitle format used on BDs/HD-DVDs
Duration : 3 h 19 min
Bit rate : 23.2 kb/s
Frame rate : 0.303 FPS
Count of elements : 3634
Stream size : 33.2 MiB (0%)
Language : English
Default : No
Forced : No

Text #4
ID : 13
Format : PGS
Muxing mode : zlib
Codec ID : S_HDMV/PGS
Codec ID/Info : Picture based subtitle format used on BDs/HD-DVDs
Duration : 3 h 47 min
Bit rate : 18.2 kb/s
Frame rate : 0.271 FPS
Count of elements : 3702
Stream size : 29.7 MiB (0%)
Language : French
Default : No
Forced : No

Text #5
ID : 14
Format : PGS
Muxing mode : zlib
Codec ID : S_HDMV/PGS
Codec ID/Info : Picture based subtitle format used on BDs/HD-DVDs
Duration : 3 h 27 min
Bit rate : 25.0 kb/s
Frame rate : 0.295 FPS
Count of elements : 3672
Stream size : 37.1 MiB (0%)
Language : German
Default : No
Forced : No

Text #6
ID : 15
Format : PGS
Muxing mode : zlib
Codec ID : S_HDMV/PGS
Codec ID/Info : Picture based subtitle format used on BDs/HD-DVDs
Duration : 3 h 27 min
Bit rate : 22.5 kb/s
Frame rate : 0.296 FPS
Count of elements : 3680
Stream size : 33.4 MiB (0%)
Language : Italian
Default : No
Forced : No

Text #7
ID : 16
Format : PGS
Muxing mode : zlib
Codec ID : S_HDMV/PGS
Codec ID/Info : Picture based subtitle format used on BDs/HD-DVDs
Duration : 3 h 47 min
Bit rate : 19.5 kb/s
Frame rate : 0.254 FPS
Count of elements : 3464
Stream size : 31.7 MiB (0%)
Language : Spanish
Default : No
Forced : No

Text #8
ID : 17
Format : PGS
Muxing mode : zlib
Codec ID : S_HDMV/PGS
Codec ID/Info : Picture based subtitle format used on BDs/HD-DVDs
Duration : 3 h 47 min
Bit rate : 19.7 kb/s
Frame rate : 0.248 FPS
Count of elements : 3384
Stream size : 32.0 MiB (0%)
Language : Dutch
Default : No
Forced : No

Text #9
ID : 18
Format : PGS
Muxing mode : zlib
Codec ID : S_HDMV/PGS
Codec ID/Info : Picture based subtitle format used on BDs/HD-DVDs
Duration : 3 h 27 min
Bit rate : 18.9 kb/s
Frame rate : 0.283 FPS
Count of elements : 3516
Stream size : 28.0 MiB (0%)
Language : 中文(简体)
Default : No
Forced : No

Text #10
ID : 19
Format : PGS
Muxing mode : zlib
Codec ID : S_HDMV/PGS
Codec ID/Info : Picture based subtitle format used on BDs/HD-DVDs
Duration : 3 h 27 min
Bit rate : 17.7 kb/s
Frame rate : 0.277 FPS
Count of elements : 3450
Stream size : 26.2 MiB (0%)
Language : 中文(繁体)
Default : No
Forced : No


Text #11
ID : 20
Format : PGS
Muxing mode : zlib
Codec ID : S_HDMV/PGS
Codec ID/Info : Picture based subtitle format used on BDs/HD-DVDs
Duration : 3 h 27 min
Bit rate : 17.7 kb/s
Frame rate : 0.279 FPS
Count of elements : 3476
Stream size : 26.2 MiB (0%)
Language : Korean
Default : No
Forced : No

Text #12
ID : 21
Format : PGS
Muxing mode : zlib
Codec ID : S_HDMV/PGS
Codec ID/Info : Picture based subtitle format used on BDs/HD-DVDs
Duration : 3 h 47 min
Bit rate : 19.1 kb/s
Frame rate : 0.251 FPS
Count of elements : 3432
Stream size : 31.1 MiB (0%)
Language : Spanish
Default : No
Forced : No

Text #13
ID : 22
Format : PGS
Muxing mode : zlib
Codec ID : S_HDMV/PGS
Codec ID/Info : Picture based subtitle format used on BDs/HD-DVDs
Duration : 3 h 27 min
Bit rate : 19.2 kb/s
Frame rate : 0.278 FPS
Count of elements : 3454
Stream size : 28.5 MiB (0%)
Language : Czech
Default : No
Forced : No

Text #14
ID : 23
Format : PGS
Muxing mode : zlib
Codec ID : S_HDMV/PGS
Codec ID/Info : Picture based subtitle format used on BDs/HD-DVDs
Duration : 3 h 47 min
Bit rate : 18.4 kb/s
Frame rate : 0.253 FPS
Count of elements : 3456
Stream size : 30.0 MiB (0%)
Language : Danish
Default : No
Forced : No

Text #15
ID : 24
Format : PGS
Muxing mode : zlib
Codec ID : S_HDMV/PGS
Codec ID/Info : Picture based subtitle format used on BDs/HD-DVDs
Duration : 3 h 47 min
Bit rate : 19.4 kb/s
Frame rate : 0.249 FPS
Count of elements : 3406
Stream size : 31.5 MiB (0%)
Language : Finnish
Default : No
Forced : No

Text #16
ID : 25
Format : PGS
Muxing mode : zlib
Codec ID : S_HDMV/PGS
Codec ID/Info : Picture based subtitle format used on BDs/HD-DVDs
Duration : 3 h 47 min
Bit rate : 20.5 kb/s
Frame rate : 0.252 FPS
Count of elements : 3446
Stream size : 33.4 MiB (0%)
Language : Greek
Default : No
Forced : No

Text #17
ID : 26
Format : PGS
Muxing mode : zlib
Codec ID : S_HDMV/PGS
Codec ID/Info : Picture based subtitle format used on BDs/HD-DVDs
Duration : 3 h 47 min
Bit rate : 19.1 kb/s
Frame rate : 0.254 FPS
Count of elements : 3472
Stream size : 31.1 MiB (0%)
Language : Norwegian
Default : No
Forced : No

Text #18
ID : 27
Format : PGS
Muxing mode : zlib
Codec ID : S_HDMV/PGS
Codec ID/Info : Picture based subtitle format used on BDs/HD-DVDs
Duration : 3 h 27 min
Bit rate : 18.1 kb/s
Frame rate : 0.276 FPS
Count of elements : 3430
Stream size : 26.9 MiB (0%)
Language : Polish
Default : No
Forced : No

Text #19
ID : 28
Format : PGS
Muxing mode : zlib
Codec ID : S_HDMV/PGS
Codec ID/Info : Picture based subtitle format used on BDs/HD-DVDs
Duration : 3 h 47 min
Bit rate : 18.6 kb/s
Frame rate : 0.254 FPS
Count of elements : 3466
Stream size : 30.4 MiB (0%)
Language : Swedish
Default : No
Forced : No

Text #20
ID : 29
Format : PGS
Muxing mode : zlib
Codec ID : S_HDMV/PGS
Codec ID/Info : Picture based subtitle format used on BDs/HD-DVDs
Duration : 3 h 27 min
Bit rate : 20.2 kb/s
Frame rate : 0.279 FPS
Count of elements : 3468
Stream size : 30.0 MiB (0%)
Language : Thai
Default : No
Forced : No

Text #21
ID : 30
Format : PGS
Muxing mode : zlib
Codec ID : S_HDMV/PGS
Codec ID/Info : Picture based subtitle format used on BDs/HD-DVDs
Duration : 2 h 51 min
Bit rate : 554 b/s
Frame rate : 0.006 FPS
Count of elements : 66
Stream size : 694 KiB (0%)
Title : FORCED
Language : French
Default : No
Forced : No

Text #22
ID : 31
Format : PGS
Muxing mode : zlib
Codec ID : S_HDMV/PGS
Codec ID/Info : Picture based subtitle format used on BDs/HD-DVDs
Duration : 2 h 8 min
Bit rate : 805 b/s
Frame rate : 0.009 FPS
Count of elements : 68
Stream size : 759 KiB (0%)
Title : FORCED
Language : German
Default : No
Forced : No

Text #23
ID : 32
Format : PGS
Muxing mode : zlib
Codec ID : S_HDMV/PGS
Codec ID/Info : Picture based subtitle format used on BDs/HD-DVDs
Duration : 3 h 26 min
Bit rate : 457 b/s
Frame rate : 0.007 FPS
Count of elements : 84
Stream size : 691 KiB (0%)
Title : FORCED
Language : Italian
Default : No
Forced : No

Text #24
ID : 33
Format : PGS
Muxing mode : zlib
Codec ID : S_HDMV/PGS
Codec ID/Info : Picture based subtitle format used on BDs/HD-DVDs
Duration : 2 h 41 min
Bit rate : 494 b/s
Frame rate : 0.007 FPS
Count of elements : 70
Stream size : 585 KiB (0%)
Title : FORCED
Language : Spanish
Default : No
Forced : No

Text #25
ID : 34
Format : PGS
Muxing mode : zlib
Codec ID : S_HDMV/PGS
Codec ID/Info : Picture based subtitle format used on BDs/HD-DVDs
Duration : 3 h 26 min
Bit rate : 18.4 kb/s
Frame rate : 0.294 FPS
Count of elements : 3644
Stream size : 27.2 MiB (0%)
Language : Japanese
Default : No
Forced : No

Text #26
ID : 35
Format : PGS
Muxing mode : zlib
Codec ID : S_HDMV/PGS
Codec ID/Info : Picture based subtitle format used on BDs/HD-DVDs
Duration : 3 h 19 min
Bit rate : 1 196 b/s
Frame rate : 0.017 FPS
Count of elements : 198
Stream size : 1.71 MiB (0%)
Title : FORCED
Language : Japanese
Default : No
Forced : No

新种资源推荐使用qBittorrent、uTorrent等下载软件,有条件的推荐115更好的下载软件!

指环王1:护戒使者(138.87GB)
The.Lord.of.the.Rings.The.Fellowship.of.the.Ring.2001.EXTENDED.PROPER.2160p.BluRay.REMUX.HEVC.DTS-HD.MA.TrueHD.7.1.Atmos-FGT-【2160P蓝光REMUX】
游客,如果您要查看本帖隐藏内容请回复



以下为英文字幕版本
指环王1:护戒使者(18.29GB)
The.Lord.of.the.Rings.The.Fellowship.of.the.Ring.2001.EXTENDED.2160p.UHD.BluRay.x265.10bit.HDR.TrueHD.7.1.Atmos-
游客,如果您要查看本帖隐藏内容请回复

指环王1:护戒使者(13.82GB)
The.Lord.of.the.Rings.The.Fellowship.of.the.Ring.2001.EXTENDED.2160p.UHD.BluRay.x265.10bit.HDR.DDP5.1-RARBG
游客,如果您要查看本帖隐藏内容请回复




QQ4K海报.gif



上一篇:霍比特人3:五军之战 [内嵌中字] (2014) 4K蓝光REMUX版本下载
下一篇:指环王2:双塔奇兵 [简繁中字] (2002) 4K蓝光REMUX版本下载
回复

使用道具 举报

0

主题

1341

帖子

4035

积分

4K家园VIP

Rank: 9Rank: 9Rank: 9

积分
4035
发表于 2022-9-21 09:47:57 | 显示全部楼层
支持一下楼主,顶起来
回复 支持 反对

使用道具 举报

0

主题

2

帖子

13

积分

新手上路

Rank: 1

积分
13
发表于 2022-9-21 10:41:24 | 显示全部楼层
谢谢楼主
回复

使用道具 举报

0

主题

29

帖子

3315

积分

中级会员

Rank: 4

积分
3315
发表于 2022-9-21 13:21:07 | 显示全部楼层
终于来了,感谢分享,顶一个。
回复 支持 反对

使用道具 举报

1

主题

1397

帖子

3997

积分

4K家园VIP

Rank: 9Rank: 9Rank: 9

积分
3997
发表于 2022-9-21 15:29:15 来自手机 | 显示全部楼层
4K家园资源最近貌似越来越多了
回复 支持 反对

使用道具 举报

2

主题

1171

帖子

3531

积分

4K家园VIP

Rank: 9Rank: 9Rank: 9

积分
3531
发表于 2022-9-21 16:27:23 | 显示全部楼层
还有没有别的资源,多分享些
回复 支持 反对

使用道具 举报

1

主题

1356

帖子

4084

积分

4K家园VIP

Rank: 9Rank: 9Rank: 9

积分
4084
发表于 2022-9-21 20:28:03 | 显示全部楼层
你们要是有4K资源记得分享,别小气
回复 支持 反对

使用道具 举报

1

主题

1380

帖子

3972

积分

4K家园VIP

Rank: 9Rank: 9Rank: 9

积分
3972
发表于 2022-9-21 20:29:44 来自手机 | 显示全部楼层
感谢分享
回复 支持 反对

使用道具 举报

0

主题

8668

帖子

2万

积分

4K家园VIP

Rank: 9Rank: 9Rank: 9

积分
20210
发表于 2022-9-21 23:49:35 | 显示全部楼层
太好啦&萬分感謝版主的無私發佈分享%
回复 支持 反对

使用道具 举报

0

主题

1

帖子

6

积分

新手上路

Rank: 1

积分
6
发表于 2022-9-26 02:40:53 来自手机 | 显示全部楼层
66666
回复

使用道具 举报

您需要登录后才可以回帖 登录 | 立即注册

本版积分规则

精彩图文
Archiver|手机版|TAG|Sitemap|新帖|专题|联系我们:邮箱: 4kjia.com@gmail.com   

4k家园   ©2019