[4K UHD 蓝光原盘] 指环王2:双塔奇兵 [简繁中字] (2002) 4K蓝光REMUX版本下载

[复制链接]

1914

主题

2003

帖子

2万

积分

超级版主

Rank: 8Rank: 8

积分
20445
 楼主| 发表于 2022-9-21 09:58:06 | 显示全部楼层 |阅读模式
本帖最后由 没完没了 于 2022-9-21 09:59 编辑

124345b2t44qfa1tvz34f1.jpg

◎译  名 指环王2:双塔奇兵/指环王II:双塔/魔戒2:双塔奇谋/魔戒二部曲:双城奇谋
◎片  名 The Lord of the Rings: The Two Towers
◎年  代 2002
◎产  地 美国/新西兰
◎类  别 剧情/动作/奇幻/冒险
◎语  言 英语/辛达林语/古代英语
◎上映日期 2002-12-05(纽约首映)/2002-12-18(美国)/2003-04-25(中国大陆)
◎整理连接 http://www.4kjia.com/
◎IMDb评分 8.8/10 from 1641378 users 更新 : 2022-09-20
◎IMDb链接 https://www.imdb.com/title/tt0167261/
◎豆瓣评分 9.2/10 from 701764 users 更新 : 2022-09-21
◎豆瓣链接 https://douban.com/subject/1291572/
◎片  长 3 h 55 min 25(加长版)
◎导  演 彼得·杰克逊 Peter Jackson
◎编  剧 弗兰·威尔士 Fran Walsh / Philippa Boyens / Stephen Sinclair / 彼得·杰克逊 Peter Jackson / 托尔金 J.R.R. Tolkien
◎主  演 伊利亚·伍德 Elijah Wood
       西恩·奥斯汀 Sean Astin
       伊恩·麦克莱恩 Ian McKellen
       维果·莫腾森 Viggo Mortensen
       奥兰多·布鲁姆 Orlando Bloom
       克里斯托弗·李 Christopher Lee
       丽芙·泰勒 Liv Tyler
       安迪·瑟金斯 Andy Serkis
       雨果·维文 Hugo Weaving
       卡尔·厄本 Karl Urban
       凯特·布兰切特 Cate Blanchett
       多米尼克·莫纳汉 Dominic Monaghan
       大卫·文翰 David Wenham
       比利·博伊德 Billy Boyd
       布拉德·道里夫 Brad Dourif
       伯纳德·希尔 Bernard Hill
       约翰·瑞斯-戴维斯 John Rhys-Davies
       米兰达·奥图 Miranda Otto

◎简  介

  第二部在延续第一部风格的同时,故事呈现出多线发展的格局,情节有了更高的观赏性。
  第一部结尾,博罗米尔被强兽人杀死之后,两个哈比族人皮平和梅利也被强兽人绑架,阿拉贡、精灵莱戈拉斯(奥兰多•布鲁姆 饰)、侏儒金利一路追踪强兽人,营救皮平和梅利,遇到了“复活”的白袍巫师甘道夫(伊恩•麦凯伦 饰)。此时,投降索伦的白袍巫师萨鲁曼控制了人类洛汉王国的国王,并派出大量的强兽人军队,准备消灭人类。阿拉贡、莱戈拉斯和金利在甘道夫的带领下,帮助洛汉王国对抗邪恶力量的入侵。
  幸运的皮平和梅利被会说话的树精救了出来,并且遇到“复活”的甘道夫,在甘道夫的授意下,树精保护了两人的安全,并且带他们参加树精大会,大会上,树精们讨论对待中土大战的态度:是继续当中立者,逆来顺受,还是奋起反抗?
  身负重任的佛罗多(伊莱贾•伍德 饰)和山姆继续向末日山脉前进,一路上被咕噜跟踪,弗罗多依靠至尊魔戒的力量,成为了咕噜的主人,在咕噜的带领下,他们到了末日山脉的入口,黑门。就在他们准备进入之时,博罗米尔的弟弟法莫尔出现,将他们带回了刚铎。弗罗多又遇上了新的危机:法莫尔想利用至尊魔戒的力量对抗萨鲁曼的攻击……

Video
ID : 1
Format : HEVC
Format/Info : High Efficiency Video Coding
Format profile : Main 10@L5.1@High
HDR format : Dolby Vision, Version 1.0, dvhe.07.06, BL+EL+RPU, Blu-ray compatible / SMPTE ST 2086, HDR10 compatible
Codec ID : V_MPEGH/ISO/HEVC
Duration : 3 h 55 min
Bit rate : 62.2 Mb/s
Width : 3 840 pixels
Height : 2 160 pixels
Display aspect ratio : 16:9
Frame rate mode : Constant
Frame rate : 23.976 (24000/1001) FPS
Color space : YUV
Chroma subsampling : 4:2:0 (Type 2)
Bit depth : 10 bits
Bits/(Pixel*Frame) : 0.313
Stream size : 102 GiB (76%)
Language : English
Default : No
Forced : No
Color range : Limited
Color primaries : BT.2020
Transfer characteristics : PQ
Matrix coefficients : BT.2020 non-constant
Mastering display color primaries : Display P3
Mastering display luminance : min: 0.0050 cd/m2, max: 4000 cd/m2
Maximum Content Light Level : 827 cd/m2
Maximum Frame-Average Light Level : 329 cd/m2

Audio #1
ID : 2
Format : MLP FBA 16-ch
Format/Info : Meridian Lossless Packing FBA with 16-channel presentation
Commercial name : Dolby TrueHD with Dolby Atmos
Codec ID : A_TRUEHD
Duration : 3 h 55 min
Bit rate mode : Variable
Bit rate : 3 057 kb/s
Maximum bit rate : 4 668 kb/s
Channel(s) : 8 channels
Channel layout : L R C LFE Ls Rs Lb Rb
Sampling rate : 48.0 kHz
Frame rate : 1 200.000 FPS (40 SPF)
Bit depth : 24 bits
Compression mode : Lossless
Stream size : 5.03 GiB (4%)
Title : TrueHD 7.1 Atmos
Language : English
Default : Yes
Forced : No
Number of dynamic objects : 11
Bed channel count : 1 channel
Bed channel configuration : LFE

Audio #2
ID : 3
Format : DTS XLL
Format/Info : Digital Theater Systems
Commercial name : DTS-HD Master Audio
Codec ID : A_DTS
Duration : 3 h 55 min
Bit rate mode : Variable
Bit rate : 3 805 kb/s
Channel(s) : 8 channels
Channel layout : C L R LFE Lb Rb Lss Rss
Sampling rate : 48.0 kHz
Frame rate : 93.750 FPS (512 SPF)
Bit depth : 24 bits
Compression mode : Lossless
Stream size : 6.26 GiB (5%)
Title : DTS-HD MA 7.1
Language : English
Default : No
Forced : No

Audio #3
ID : 4
Format : AC-3
Format/Info : Audio Coding 3
Commercial name : Dolby Digital
Format settings : Dolby Surround EX
Codec ID : A_AC3
Duration : 3 h 55 min
Bit rate mode : Constant
Bit rate : 448 kb/s
Channel(s) : 6 channels
Channel layout : L R C LFE Ls Rs
Sampling rate : 48.0 kHz
Frame rate : 31.250 FPS (1536 SPF)
Compression mode : Lossy
Stream size : 755 MiB (0%)
Title : DD 5.1
Language : English
Service kind : Complete Main
Default : No
Forced : No

Audio #4
ID : 5
Format : DTS XLL
Format/Info : Digital Theater Systems
Commercial name : DTS-HD Master Audio
Codec ID : A_DTS
Duration : 3 h 55 min
Bit rate mode : Variable
Bit rate : 2 255 kb/s
Channel(s) : 6 channels
Channel layout : C L R Ls Rs LFE
Sampling rate : 48.0 kHz
Frame rate : 93.750 FPS (512 SPF)
Bit depth : 16 bits
Compression mode : Lossless
Stream size : 3.71 GiB (3%)
Title : DTS-HD MA 5.1
Language : French
Default : No
Forced : No

Audio #5
ID : 6
Format : DTS ES XXCH XLL
Format/Info : Digital Theater Systems
Commercial name : DTS-HD Master Audio
Codec ID : A_DTS
Duration : 3 h 55 min
Bit rate mode : Variable
Bit rate : 2 445 kb/s
Channel(s) : 7 channels
Channel layout : C L R Ls Rs LFE Cb
Sampling rate : 48.0 kHz
Frame rate : 93.750 FPS (512 SPF)
Bit depth : 16 bits
Compression mode : Lossless
Stream size : 4.02 GiB (3%)
Title : DTS-HD MA 6.1
Language : German
Default : No
Forced : No

Audio #6
ID : 7
Format : DTS ES XXCH XLL
Format/Info : Digital Theater Systems
Commercial name : DTS-HD Master Audio
Codec ID : A_DTS
Duration : 3 h 55 min
Bit rate mode : Variable
Bit rate : 2 559 kb/s
Channel(s) : 7 channels
Channel layout : C L R Ls Rs LFE Cb
Sampling rate : 48.0 kHz
Frame rate : 93.750 FPS (512 SPF)
Bit depth : 16 bits
Compression mode : Lossless
Stream size : 4.21 GiB (3%)
Title : DTS-HD MA 6.1
Language : Italian
Default : No
Forced : No

Audio #7
ID : 8
Format : DTS ES XLL
Format/Info : Digital Theater Systems
Commercial name : DTS-HD Master Audio
Codec ID : A_DTS
Duration : 3 h 55 min
Bit rate mode : Variable
Bit rate : 2 228 kb/s
Channel(s) : 6 channels
Channel(s)_Original : 7 channels
ChannelLayout_Original : C L R Ls Rs LFE Cb
Sampling rate : 48.0 kHz
Frame rate : 93.750 FPS (512 SPF)
Bit depth : 16 bits
Compression mode : Lossless
Stream size : 3.67 GiB (3%)
Title : DTS-HD MA 5.1
Language : Spanish
Default : No
Forced : No

Audio #8
ID : 9
Format : DTS XLL
Format/Info : Digital Theater Systems
Commercial name : DTS-HD Master Audio
Codec ID : A_DTS
Duration : 3 h 55 min
Bit rate mode : Variable
Bit rate : 2 363 kb/s
Channel(s) : 6 channels
Channel layout : C L R Ls Rs LFE
Sampling rate : 48.0 kHz
Frame rate : 93.750 FPS (512 SPF)
Bit depth : 24 bits
Compression mode : Lossless
Stream size : 3.89 GiB (3%)
Title : DTS-HD MA 5.1
Language : Japanese
Default : No
Forced : No

Text #1
ID : 10
Format : UTF-8
Codec ID : S_TEXT/UTF8
Codec ID/Info : UTF-8 Plain Text
Duration : 3 h 33 min
Bit rate : 35 b/s
Frame rate : 0.149 FPS
Count of elements : 1902
Stream size : 56.0 KiB (0%)
Language : English
Default : Yes
Forced : No

Text #2
ID : 11
Format : UTF-8
Codec ID : S_TEXT/UTF8
Codec ID/Info : UTF-8 Plain Text
Duration : 3 h 33 min
Bit rate : 37 b/s
Frame rate : 0.162 FPS
Count of elements : 2077
Stream size : 58.6 KiB (0%)
Title : SDH
Language : English
Default : No
Forced : No

Text #3
ID : 12
Format : PGS
Muxing mode : zlib
Codec ID : S_HDMV/PGS
Codec ID/Info : Picture based subtitle format used on BDs/HD-DVDs
Duration : 3 h 33 min
Bit rate : 23.0 kb/s
Frame rate : 0.337 FPS
Count of elements : 4324
Stream size : 35.2 MiB (0%)
Language : English
Default : No
Forced : No

Text #4
ID : 13
Format : PGS
Muxing mode : zlib
Codec ID : S_HDMV/PGS
Codec ID/Info : Picture based subtitle format used on BDs/HD-DVDs
Duration : 3 h 54 min
Bit rate : 19.1 kb/s
Frame rate : 0.301 FPS
Count of elements : 4246
Stream size : 32.0 MiB (0%)
Language : French
Default : No
Forced : No

Text #5
ID : 14
Format : PGS
Muxing mode : zlib
Codec ID : S_HDMV/PGS
Codec ID/Info : Picture based subtitle format used on BDs/HD-DVDs
Duration : 3 h 42 min
Bit rate : 26.9 kb/s
Frame rate : 0.321 FPS
Count of elements : 4274
Stream size : 42.7 MiB (0%)
Language : German
Default : No
Forced : No

Text #6
ID : 15
Format : PGS
Muxing mode : zlib
Codec ID : S_HDMV/PGS
Codec ID/Info : Picture based subtitle format used on BDs/HD-DVDs
Duration : 3 h 33 min
Bit rate : 23.7 kb/s
Frame rate : 0.342 FPS
Count of elements : 4384
Stream size : 36.3 MiB (0%)
Language : Italian
Default : No
Forced : No

Text #7
ID : 16
Format : PGS
Muxing mode : zlib
Codec ID : S_HDMV/PGS
Codec ID/Info : Picture based subtitle format used on BDs/HD-DVDs
Duration : 3 h 54 min
Bit rate : 19.6 kb/s
Frame rate : 0.290 FPS
Count of elements : 4072
Stream size : 32.9 MiB (0%)
Language : Spanish
Default : No
Forced : No

Text #8
ID : 17
Format : PGS
Muxing mode : zlib
Codec ID : S_HDMV/PGS
Codec ID/Info : Picture based subtitle format used on BDs/HD-DVDs
Duration : 3 h 54 min
Bit rate : 20.1 kb/s
Frame rate : 0.244 FPS
Count of elements : 3434
Stream size : 33.6 MiB (0%)
Language : Dutch
Default : No
Forced : No

Text #9
ID : 18
Format : PGS
Muxing mode : zlib
Codec ID : S_HDMV/PGS
Codec ID/Info : Picture based subtitle format used on BDs/HD-DVDs
Duration : 3 h 42 min
Bit rate : 18.0 kb/s
Frame rate : 0.305 FPS
Count of elements : 4068
Stream size : 28.7 MiB (0%)
Language : 中文(简体)
Default : No
Forced : No

Text #10
ID : 19
Format : PGS
Muxing mode : zlib
Codec ID : S_HDMV/PGS
Codec ID/Info : Picture based subtitle format used on BDs/HD-DVDs
Duration : 3 h 54 min
Bit rate : 16.0 kb/s
Frame rate : 0.289 FPS
Count of elements : 4070
Stream size : 26.9 MiB (0%)
Language : 中文(繁体)
Default : No
Forced : No


Text #11
ID : 20
Format : PGS
Muxing mode : zlib
Codec ID : S_HDMV/PGS
Codec ID/Info : Picture based subtitle format used on BDs/HD-DVDs
Duration : 3 h 42 min
Bit rate : 16.9 kb/s
Frame rate : 0.304 FPS
Count of elements : 4066
Stream size : 26.9 MiB (0%)
Language : Korean
Default : No
Forced : No

Text #12
ID : 21
Format : PGS
Muxing mode : zlib
Codec ID : S_HDMV/PGS
Codec ID/Info : Picture based subtitle format used on BDs/HD-DVDs
Duration : 3 h 54 min
Bit rate : 20.2 kb/s
Frame rate : 0.289 FPS
Count of elements : 4066
Stream size : 33.9 MiB (0%)
Language : Spanish
Default : No
Forced : No

Text #13
ID : 22
Format : PGS
Muxing mode : zlib
Codec ID : S_HDMV/PGS
Codec ID/Info : Picture based subtitle format used on BDs/HD-DVDs
Duration : 3 h 42 min
Bit rate : 18.6 kb/s
Frame rate : 0.300 FPS
Count of elements : 4012
Stream size : 29.6 MiB (0%)
Language : Czech
Default : No
Forced : No

Text #14
ID : 23
Format : PGS
Muxing mode : zlib
Codec ID : S_HDMV/PGS
Codec ID/Info : Picture based subtitle format used on BDs/HD-DVDs
Duration : 3 h 54 min
Bit rate : 17.7 kb/s
Frame rate : 0.225 FPS
Count of elements : 3166
Stream size : 29.7 MiB (0%)
Language : Danish
Default : No
Forced : No

Text #15
ID : 24
Format : PGS
Muxing mode : zlib
Codec ID : S_HDMV/PGS
Codec ID/Info : Picture based subtitle format used on BDs/HD-DVDs
Duration : 3 h 54 min
Bit rate : 18.4 kb/s
Frame rate : 0.243 FPS
Count of elements : 3430
Stream size : 30.9 MiB (0%)
Language : Finnish
Default : No
Forced : No

Text #16
ID : 25
Format : PGS
Muxing mode : zlib
Codec ID : S_HDMV/PGS
Codec ID/Info : Picture based subtitle format used on BDs/HD-DVDs
Duration : 3 h 33 min
Bit rate : 23.5 kb/s
Frame rate : 0.316 FPS
Count of elements : 4050
Stream size : 36.0 MiB (0%)
Language : Greek
Default : No
Forced : No

Text #17
ID : 26
Format : PGS
Muxing mode : zlib
Codec ID : S_HDMV/PGS
Codec ID/Info : Picture based subtitle format used on BDs/HD-DVDs
Duration : 3 h 54 min
Bit rate : 17.7 kb/s
Frame rate : 0.219 FPS
Count of elements : 3092
Stream size : 29.7 MiB (0%)
Language : Norwegian
Default : No
Forced : No

Text #18
ID : 27
Format : PGS
Muxing mode : zlib
Codec ID : S_HDMV/PGS
Codec ID/Info : Picture based subtitle format used on BDs/HD-DVDs
Duration : 3 h 42 min
Bit rate : 18.2 kb/s
Frame rate : 0.304 FPS
Count of elements : 4068
Stream size : 29.0 MiB (0%)
Language : Polish
Default : No
Forced : No

Text #19
ID : 28
Format : PGS
Muxing mode : zlib
Codec ID : S_HDMV/PGS
Codec ID/Info : Picture based subtitle format used on BDs/HD-DVDs
Duration : 3 h 54 min
Bit rate : 18.8 kb/s
Frame rate : 0.217 FPS
Count of elements : 3062
Stream size : 31.5 MiB (0%)
Language : Swedish
Default : No
Forced : No

Text #20
ID : 29
Format : PGS
Muxing mode : zlib
Codec ID : S_HDMV/PGS
Codec ID/Info : Picture based subtitle format used on BDs/HD-DVDs
Duration : 3 h 42 min
Bit rate : 18.9 kb/s
Frame rate : 0.304 FPS
Count of elements : 4068
Stream size : 30.1 MiB (0%)
Language : Thai
Default : No
Forced : No

Text #21
ID : 30
Format : PGS
Muxing mode : zlib
Codec ID : S_HDMV/PGS
Codec ID/Info : Picture based subtitle format used on BDs/HD-DVDs
Duration : 3 h 26 min
Bit rate : 527 b/s
Frame rate : 0.009 FPS
Count of elements : 106
Stream size : 799 KiB (0%)
Title : FORCED
Language : French
Default : No
Forced : No

Text #22
ID : 31
Format : PGS
Muxing mode : zlib
Codec ID : S_HDMV/PGS
Codec ID/Info : Picture based subtitle format used on BDs/HD-DVDs
Duration : 3 h 7 min
Bit rate : 717 b/s
Frame rate : 0.010 FPS
Count of elements : 108
Stream size : 983 KiB (0%)
Title : FORCED
Language : German
Default : No
Forced : No

Text #23
ID : 32
Format : PGS
Muxing mode : zlib
Codec ID : S_HDMV/PGS
Codec ID/Info : Picture based subtitle format used on BDs/HD-DVDs
Duration : 2 h 51 min
Bit rate : 658 b/s
Frame rate : 0.010 FPS
Count of elements : 104
Stream size : 825 KiB (0%)
Title : FORCED
Language : Italian
Default : No
Forced : No

Text #24
ID : 33
Format : PGS
Muxing mode : zlib
Codec ID : S_HDMV/PGS
Codec ID/Info : Picture based subtitle format used on BDs/HD-DVDs
Duration : 2 h 51 min
Bit rate : 643 b/s
Frame rate : 0.010 FPS
Count of elements : 102
Stream size : 806 KiB (0%)
Title : FORCED
Language : Spanish
Default : No
Forced : No

Text #25
ID : 34
Format : PGS
Muxing mode : zlib
Codec ID : S_HDMV/PGS
Codec ID/Info : Picture based subtitle format used on BDs/HD-DVDs
Duration : 3 h 36 min
Bit rate : 19.6 kb/s
Frame rate : 0.370 FPS
Count of elements : 4810
Stream size : 30.4 MiB (0%)
Language : Japanese
Default : No
Forced : No

Text #26
ID : 35
Format : PGS
Muxing mode : zlib
Codec ID : S_HDMV/PGS
Codec ID/Info : Picture based subtitle format used on BDs/HD-DVDs
Duration : 3 h 34 min
Bit rate : 1 090 b/s
Frame rate : 0.072 FPS
Count of elements : 926
Stream size : 1.67 MiB (0%)
Title : FORCED
Language : Japanese
Default : No
Forced : No

Menu
00:00:00.000 : en:Chapter 01
00:04:08.373 : en:Chapter 02
00:06:10.703 : en:Chapter 03
00:14:44.925 : en:Chapter 04
00:17:06.567 : en:Chapter 05
00:19:17.823 : en:Chapter 06
00:23:03.715 : en:Chapter 07
00:23:58.186 : en:Chapter 08
00:27:09.002 : en:Chapter 09
00:28:02.972 : en:Chapter 10
00:31:38.062 : en:Chapter 11
00:35:45.351 : en:Chapter 12
00:38:17.545 : en:Chapter 13
00:41:47.171 : en:Chapter 14
00:50:49.296 : en:Chapter 15
00:58:19.370 : en:Chapter 16
01:00:40.136 : en:Chapter 17
01:02:48.264 : en:Chapter 18
01:08:05.956 : en:Chapter 19
01:12:41.315 : en:Chapter 20
01:24:17.302 : en:Chapter 21
01:25:42.053 : en:Chapter 22
01:27:34.290 : en:Chapter 23
01:30:44.772 : en:Chapter 24
01:32:30.545 : en:Chapter 25
01:34:30.790 : en:Chapter 26
01:35:56.751 : en:Chapter 27
01:37:01.232 : en:Chapter 28
01:38:43.918 : en:Chapter 29
01:41:15.235 : en:Chapter 30
01:46:39.200 : en:Chapter 01
01:47:22.952 : en:Chapter 02
01:49:52.434 : en:Chapter 03
01:54:59.366 : en:Chapter 04
02:01:37.555 : en:Chapter 05
02:04:18.091 : en:Chapter 06
02:06:54.122 : en:Chapter 07
02:08:31.802 : en:Chapter 08
02:12:14.442 : en:Chapter 09
02:14:40.421 : en:Chapter 10
02:18:30.526 : en:Chapter 11
02:23:09.596 : en:Chapter 12
02:30:31.162 : en:Chapter 13
02:36:04.537 : en:Chapter 14
02:37:24.408 : en:Chapter 15
02:40:32.680 : en:Chapter 16
02:42:17.409 : en:Chapter 17
02:43:07.876 : en:Chapter 18
02:46:40.506 : en:Chapter 19
02:53:04.556 : en:Chapter 20
02:54:41.611 : en:Chapter 21
02:58:06.399 : en:Chapter 22
02:59:51.879 : en:Chapter 23
03:05:54.367 : en:Chapter 24
03:07:19.452 : en:Chapter 25
03:07:54.153 : en:Chapter 26
03:10:23.719 : en:Chapter 27
03:12:55.704 : en:Chapter 28
03:17:33.815 : en:Chapter 29
03:20:00.253 : en:Chapter 30
03:24:45.830 : en:Chapter 31
03:25:38.341 : en:Chapter 32
03:26:18.631 : en:Chapter 33
03:28:22.714 : en:Chapter 34
03:30:52.572 : en:Chapter 35
03:32:32.255 : en:Chapter 36
03:34:56.774 : en:Chapter 37
03:43:52.684 : en:Chapter 38

新种资源推荐使用qBittorrent、uTorrent等下载软件,有条件的推荐115更好的下载软件!

指环王2:双塔奇兵(134.30GB)
The.Lord.of.the.Rings.The.Two.Towers.2002.EXTENDED.PROPER.2160p.BluRay.REMUX.HEVC.DTS-HD.MA.TrueHD.7.1.Atmos-FGT-【2160P蓝光REMUX】

游客,如果您要查看本帖隐藏内容请回复





QQ4K海报.gif

上一篇:指环王1:护戒使者 [简繁中字] (2001) 4K蓝光REMUX版本下载
下一篇:指环王3:王者无敌 [简繁中字] (2003) 4K蓝光REMUX版本下载
回复

使用道具 举报

0

主题

1576

帖子

4328

积分

4K家园VIP

Rank: 9Rank: 9Rank: 9

积分
4328
发表于 2022-9-21 09:58:23 | 显示全部楼层
这个资源我记得是一套的,楼主还有没有
回复 支持 反对

使用道具 举报

0

主题

8663

帖子

2万

积分

4K家园VIP

Rank: 9Rank: 9Rank: 9

积分
20189
发表于 2022-9-21 23:49:17 | 显示全部楼层
太好啦&萬分感謝版主的無私發佈分享%
回复 支持 反对

使用道具 举报

4

主题

1736

帖子

4828

积分

4K家园VIP

Rank: 9Rank: 9Rank: 9

积分
4828
发表于 2022-9-25 04:16:07 来自手机 | 显示全部楼层
多发些资源啊
回复 支持 反对

使用道具 举报

2

主题

1444

帖子

4170

积分

中级会员

Rank: 4

积分
4170
发表于 6 天前 | 显示全部楼层
谢谢楼主
回复 支持 反对

使用道具 举报

2

主题

1355

帖子

3919

积分

4K家园VIP

Rank: 9Rank: 9Rank: 9

积分
3919
发表于 4 天前 | 显示全部楼层
你们要是有4K资源记得分享,别小气
回复 支持 反对

使用道具 举报

您需要登录后才可以回帖 登录 | 立即注册

本版积分规则

精彩图文
Archiver|手机版|TAG|Sitemap|新帖|专题|联系我们:邮箱: 4kjia.com@gmail.com   

4k家园   ©2019