[4K UHD 蓝光原盘] 指环王3:王者无敌 [简繁中字] (2003) 4K蓝光REMUX版本下载

[复制链接]

1914

主题

2003

帖子

2万

积分

超级版主

Rank: 8Rank: 8

积分
20445
 楼主| 发表于 2022-9-21 10:07:03 | 显示全部楼层 |阅读模式
124345j81j31j306xkeege.jpg

◎译  名 指环王3:王者无敌/指环王3:国王归来/指环王3:皇上回宫(豆友译名)/指环王III:王者无敌/魔戒3:王者归来/魔戒三部曲:王者再临(台/港)
◎片  名 The Lord of the Rings: The Return of the King
◎年  代 2003
◎产  地 美国/新西兰
◎类  别 剧情/动作/奇幻/冒险
◎语  言 英语/昆雅语/古英语/辛达林语
◎整理连接 http://www.4kjia.com/
◎上映日期 2003-12-17(美国)/2004-03-12(中国大陆)
◎IMDb评分 9.0/10 from 1817712 users 更新 : 2022-09-20
◎IMDb链接 https://www.imdb.com/title/tt0167260/
◎豆瓣评分 9.3/10 from 750817 users 更新 : 2022-09-21
◎豆瓣链接 https://douban.com/subject/1291552/
◎片  长 4 h 23 min(加长版)
◎导  演 彼得·杰克逊 Peter Jackson
◎编  剧 弗兰·威尔士 Fran Walsh / Philippa Boyens / 彼得·杰克逊 Peter Jackson / 托尔金 J.R.R. Tolkien
◎主  演 维果·莫腾森 Viggo Mortensen
       伊利亚·伍德 Elijah Wood
       西恩·奥斯汀 Sean Astin
       丽芙·泰勒 Liv Tyler
       伊恩·麦克莱恩 Ian McKellen
       奥兰多·布鲁姆 Orlando Bloom
       凯特·布兰切特 Cate Blanchett
       米兰达·奥图 Miranda Otto
       安迪·瑟金斯 Andy Serkis
       雨果·维文 Hugo Weaving
       多米尼克·莫纳汉 Dominic Monaghan
       比利·博伊德 Billy Boyd
       马尔顿·索克斯 Marton Csokas
       卡尔·厄本 Karl Urban
       克里斯托弗·李 Christopher Lee
       约翰·瑞斯-戴维斯 John Rhys-Davies

◎简  介

  魔幻战争逐渐进入高潮阶段。霍比特人弗拉多(伊利亚·伍德 Elijah Wood 饰)携带着魔戒,与伙伴山姆(Sean Astin 饰)以及狡猾阴暗的咕噜等前往末日山,一路上艰难险阻不断,魔君索伦为阻止魔戒被销毁用尽全力阻挠。另一方面,白袍巫师甘道夫(伊安·麦克莱恩 Ian McKellen 饰)率中土勇士们镇守刚铎首都——白城米那斯提里斯。魔兽大军压境,黑暗与光明的决战即将来临……
  本片是“指环王三部曲”的终结篇,根据英国作家J.R.R.托尔金(J.R.R. Tolkien)同名魔幻巨著《指环王》(The Lord of the Rings)改编,并荣获2004年第76届奥斯卡最佳影片、最佳导演、最佳改编剧本、最佳剪辑、最佳艺术指导、最佳服装设计、最佳化妆、最佳视觉效果、最佳音效、最佳配乐和最佳歌曲等11项大奖。

Video
ID : 1
Format : HEVC
Format/Info : High Efficiency Video Coding
Format profile : Main 10@L5.1@High
HDR format : Dolby Vision, Version 1.0, dvhe.07.06, BL+EL+RPU, Blu-ray compatible / SMPTE ST 2086, HDR10 compatible
Codec ID : V_MPEGH/ISO/HEVC
Duration : 4 h 23 min
Bit rate : 65.6 Mb/s
Width : 3 840 pixels
Height : 2 160 pixels
Display aspect ratio : 16:9
Frame rate mode : Constant
Frame rate : 23.976 (24000/1001) FPS
Color space : YUV
Chroma subsampling : 4:2:0 (Type 2)
Bit depth : 10 bits
Bits/(Pixel*Frame) : 0.330
Stream size : 121 GiB (77%)
Language : English
Default : No
Forced : No
Color range : Limited
Color primaries : BT.2020
Transfer characteristics : PQ
Matrix coefficients : BT.2020 non-constant
Mastering display color primaries : Display P3
Mastering display luminance : min: 0.0050 cd/m2, max: 4000 cd/m2
Maximum Content Light Level : 636 cd/m2
Maximum Frame-Average Light Level : 103 cd/m2

Audio #1
ID : 2
Format : MLP FBA 16-ch
Format/Info : Meridian Lossless Packing FBA with 16-channel presentation
Commercial name : Dolby TrueHD with Dolby Atmos
Codec ID : A_TRUEHD
Duration : 4 h 23 min
Bit rate mode : Variable
Bit rate : 2 970 kb/s
Maximum bit rate : 4 515 kb/s
Channel(s) : 8 channels
Channel layout : L R C LFE Ls Rs Lb Rb
Sampling rate : 48.0 kHz
Frame rate : 1 200.000 FPS (40 SPF)
Bit depth : 24 bits
Compression mode : Lossless
Stream size : 5.46 GiB (3%)
Title : TrueHD 7.1 Atmos
Language : English
Default : Yes
Forced : No
Number of dynamic objects : 11
Bed channel count : 1 channel
Bed channel configuration : LFE

Audio #2
ID : 3
Format : DTS XLL
Format/Info : Digital Theater Systems
Commercial name : DTS-HD Master Audio
Codec ID : A_DTS
Duration : 4 h 23 min
Bit rate mode : Variable
Bit rate : 3 693 kb/s
Channel(s) : 8 channels
Channel layout : C L R LFE Lb Rb Lss Rss
Sampling rate : 48.0 kHz
Frame rate : 93.750 FPS (512 SPF)
Bit depth : 24 bits
Compression mode : Lossless
Stream size : 6.79 GiB (4%)
Title : DTS-HD MA 7.1
Language : English
Default : No
Forced : No

Audio #3
ID : 4
Format : AC-3
Format/Info : Audio Coding 3
Commercial name : Dolby Digital
Format settings : Dolby Surround EX
Codec ID : A_AC3
Duration : 4 h 23 min
Bit rate mode : Constant
Bit rate : 448 kb/s
Channel(s) : 6 channels
Channel layout : L R C LFE Ls Rs
Sampling rate : 48.0 kHz
Frame rate : 31.250 FPS (1536 SPF)
Compression mode : Lossy
Stream size : 844 MiB (0%)
Title : DD 5.1
Language : English
Service kind : Complete Main
Default : No
Forced : No

Audio #4
ID : 5
Format : DTS ES XXCH XLL
Format/Info : Digital Theater Systems
Commercial name : DTS-HD Master Audio
Codec ID : A_DTS
Duration : 4 h 23 min
Bit rate mode : Variable
Bit rate : 2 593 kb/s
Channel(s) : 7 channels
Channel layout : C L R Ls Rs LFE Cb
Sampling rate : 48.0 kHz
Frame rate : 93.750 FPS (512 SPF)
Bit depth : 16 bits
Compression mode : Lossless
Stream size : 4.77 GiB (3%)
Title : DTS-HD MA 6.1
Language : French
Default : No
Forced : No

Audio #5
ID : 6
Format : DTS ES XXCH XLL
Format/Info : Digital Theater Systems
Commercial name : DTS-HD Master Audio
Codec ID : A_DTS
Duration : 4 h 23 min
Bit rate mode : Variable
Bit rate : 2 504 kb/s
Channel(s) : 7 channels
Channel layout : C L R Ls Rs LFE Cb
Sampling rate : 48.0 kHz
Frame rate : 93.750 FPS (512 SPF)
Bit depth : 16 bits
Compression mode : Lossless
Stream size : 4.60 GiB (3%)
Title : DTS-HD MA 6.1
Language : German
Default : No
Forced : No

Audio #6
ID : 7
Format : DTS XLL
Format/Info : Digital Theater Systems
Commercial name : DTS-HD Master Audio
Codec ID : A_DTS
Duration : 4 h 23 min
Bit rate mode : Variable
Bit rate : 2 331 kb/s
Channel(s) : 6 channels
Channel layout : C L R Ls Rs LFE
Sampling rate : 48.0 kHz
Frame rate : 93.750 FPS (512 SPF)
Bit depth : 16 bits
Compression mode : Lossless
Stream size : 4.29 GiB (3%)
Title : DTS-HD MA 5.1
Language : Italian
Default : No
Forced : No

Audio #7
ID : 8
Format : DTS XLL
Format/Info : Digital Theater Systems
Commercial name : DTS-HD Master Audio
Codec ID : A_DTS
Duration : 4 h 23 min
Bit rate mode : Variable
Bit rate : 2 250 kb/s
Channel(s) : 6 channels
Channel layout : C L R Ls Rs LFE
Sampling rate : 48.0 kHz
Frame rate : 93.750 FPS (512 SPF)
Bit depth : 16 bits
Compression mode : Lossless
Stream size : 4.14 GiB (3%)
Title : DTS-HD MA 5.1
Language : Spanish
Default : No
Forced : No

Audio #8
ID : 9
Format : DTS XLL
Format/Info : Digital Theater Systems
Commercial name : DTS-HD Master Audio
Codec ID : A_DTS
Duration : 4 h 23 min
Bit rate mode : Variable
Bit rate : 3 032 kb/s
Channel(s) : 6 channels
Channel layout : C L R Ls Rs LFE
Sampling rate : 48.0 kHz
Frame rate : 93.750 FPS (512 SPF)
Bit depth : 16 bits
Compression mode : Lossless
Stream size : 5.58 GiB (4%)
Title : DTS-HD MA 5.1
Language : Japanese
Default : No
Forced : No

Text #1
ID : 10
Format : UTF-8
Codec ID : S_TEXT/UTF8
Codec ID/Info : UTF-8 Plain Text
Duration : 4 h 5 min
Bit rate : 27 b/s
Frame rate : 0.119 FPS
Count of elements : 1749
Stream size : 49.4 KiB (0%)
Language : English
Default : Yes
Forced : No

Text #2
ID : 11
Format : UTF-8
Codec ID : S_TEXT/UTF8
Codec ID/Info : UTF-8 Plain Text
Duration : 4 h 5 min
Bit rate : 29 b/s
Frame rate : 0.140 FPS
Count of elements : 2059
Stream size : 54.0 KiB (0%)
Title : SDH
Language : English
Default : No
Forced : No

Text #3
ID : 12
Format : PGS
Muxing mode : zlib
Codec ID : S_HDMV/PGS
Codec ID/Info : Picture based subtitle format used on BDs/HD-DVDs
Duration : 4 h 5 min
Bit rate : 18.8 kb/s
Frame rate : 0.294 FPS
Count of elements : 4340
Stream size : 33.1 MiB (0%)
Language : English
Default : No
Forced : No

Text #4
ID : 13
Format : PGS
Muxing mode : zlib
Codec ID : S_HDMV/PGS
Codec ID/Info : Picture based subtitle format used on BDs/HD-DVDs
Duration : 4 h 22 min
Bit rate : 13.8 kb/s
Frame rate : 0.227 FPS
Count of elements : 3576
Stream size : 25.9 MiB (0%)
Language : French
Default : No
Forced : No

Text #5
ID : 14
Format : PGS
Muxing mode : zlib
Codec ID : S_HDMV/PGS
Codec ID/Info : Picture based subtitle format used on BDs/HD-DVDs
Duration : 4 h 6 min
Bit rate : 22.5 kb/s
Frame rate : 0.280 FPS
Count of elements : 4144
Stream size : 39.6 MiB (0%)
Language : German
Default : No
Forced : No

Text #6
ID : 15
Format : PGS
Muxing mode : zlib
Codec ID : S_HDMV/PGS
Codec ID/Info : Picture based subtitle format used on BDs/HD-DVDs
Duration : 4 h 6 min
Bit rate : 19.3 kb/s
Frame rate : 0.295 FPS
Count of elements : 4362
Stream size : 34.0 MiB (0%)
Language : Italian
Default : No
Forced : No

Text #7
ID : 16
Format : PGS
Muxing mode : zlib
Codec ID : S_HDMV/PGS
Codec ID/Info : Picture based subtitle format used on BDs/HD-DVDs
Duration : 4 h 21 min
Bit rate : 15.4 kb/s
Frame rate : 0.239 FPS
Count of elements : 3750
Stream size : 28.9 MiB (0%)
Language : Spanish
Default : No
Forced : No

Text #8
ID : 17
Format : PGS
Muxing mode : zlib
Codec ID : S_HDMV/PGS
Codec ID/Info : Picture based subtitle format used on BDs/HD-DVDs
Duration : 3 h 59 min
Bit rate : 16.5 kb/s
Frame rate : 0.236 FPS
Count of elements : 3392
Stream size : 28.2 MiB (0%)
Language : Dutch
Default : No
Forced : No

Text #9
ID : 18
Format : PGS
Muxing mode : zlib
Codec ID : S_HDMV/PGS
Codec ID/Info : Picture based subtitle format used on BDs/HD-DVDs
Duration : 4 h 6 min
Bit rate : 14.6 kb/s
Frame rate : 0.252 FPS
Count of elements : 3720
Stream size : 25.6 MiB (0%)
Language : 中文(简体)
Default : No
Forced : No

Text #10
ID : 19
Format : PGS
Muxing mode : zlib
Codec ID : S_HDMV/PGS
Codec ID/Info : Picture based subtitle format used on BDs/HD-DVDs
Duration : 4 h 6 min
Bit rate : 14.7 kb/s
Frame rate : 0.252 FPS
Count of elements : 3720
Stream size : 26.0 MiB (0%)
Language : 中文(繁体)
Default : No
Forced : No


Text #11
ID : 20
Format : PGS
Muxing mode : zlib
Codec ID : S_HDMV/PGS
Codec ID/Info : Picture based subtitle format used on BDs/HD-DVDs
Duration : 4 h 6 min
Bit rate : 13.5 kb/s
Frame rate : 0.252 FPS
Count of elements : 3720
Stream size : 23.8 MiB (0%)
Language : Korean
Default : No
Forced : No

Text #12
ID : 21
Format : PGS
Muxing mode : zlib
Codec ID : S_HDMV/PGS
Codec ID/Info : Picture based subtitle format used on BDs/HD-DVDs
Duration : 4 h 22 min
Bit rate : 15.3 kb/s
Frame rate : 0.225 FPS
Count of elements : 3550
Stream size : 28.8 MiB (0%)
Language : Spanish
Default : No
Forced : No

Text #13
ID : 22
Format : PGS
Muxing mode : zlib
Codec ID : S_HDMV/PGS
Codec ID/Info : Picture based subtitle format used on BDs/HD-DVDs
Duration : 4 h 6 min
Bit rate : 14.8 kb/s
Frame rate : 0.250 FPS
Count of elements : 3690
Stream size : 26.1 MiB (0%)
Language : Czech
Default : No
Forced : No

Text #14
ID : 23
Format : PGS
Muxing mode : zlib
Codec ID : S_HDMV/PGS
Codec ID/Info : Picture based subtitle format used on BDs/HD-DVDs
Duration : 4 h 22 min
Bit rate : 13.5 kb/s
Frame rate : 0.174 FPS
Count of elements : 2742
Stream size : 25.3 MiB (0%)
Language : Danish
Default : No
Forced : No

Text #15
ID : 24
Format : PGS
Muxing mode : zlib
Codec ID : S_HDMV/PGS
Codec ID/Info : Picture based subtitle format used on BDs/HD-DVDs
Duration : 4 h 22 min
Bit rate : 14.4 kb/s
Frame rate : 0.229 FPS
Count of elements : 3606
Stream size : 27.0 MiB (0%)
Language : Finnish
Default : No
Forced : No

Text #16
ID : 25
Format : PGS
Muxing mode : zlib
Codec ID : S_HDMV/PGS
Codec ID/Info : Picture based subtitle format used on BDs/HD-DVDs
Duration : 4 h 22 min
Bit rate : 16.6 kb/s
Frame rate : 0.236 FPS
Count of elements : 3720
Stream size : 31.1 MiB (0%)
Language : Greek
Default : No
Forced : No

Text #17
ID : 26
Format : PGS
Muxing mode : zlib
Codec ID : S_HDMV/PGS
Codec ID/Info : Picture based subtitle format used on BDs/HD-DVDs
Duration : 4 h 22 min
Bit rate : 12.9 kb/s
Frame rate : 0.164 FPS
Count of elements : 2586
Stream size : 24.2 MiB (0%)
Language : Norwegian
Default : No
Forced : No

Text #18
ID : 27
Format : PGS
Muxing mode : zlib
Codec ID : S_HDMV/PGS
Codec ID/Info : Picture based subtitle format used on BDs/HD-DVDs
Duration : 4 h 6 min
Bit rate : 14.9 kb/s
Frame rate : 0.242 FPS
Count of elements : 3578
Stream size : 26.3 MiB (0%)
Language : Polish
Default : No
Forced : No

Text #19
ID : 28
Format : PGS
Muxing mode : zlib
Codec ID : S_HDMV/PGS
Codec ID/Info : Picture based subtitle format used on BDs/HD-DVDs
Duration : 4 h 22 min
Bit rate : 14.1 kb/s
Frame rate : 0.171 FPS
Count of elements : 2692
Stream size : 26.5 MiB (0%)
Language : Swedish
Default : No
Forced : No

Text #20
ID : 29
Format : PGS
Muxing mode : zlib
Codec ID : S_HDMV/PGS
Codec ID/Info : Picture based subtitle format used on BDs/HD-DVDs
Duration : 3 h 59 min
Bit rate : 14.3 kb/s
Frame rate : 0.249 FPS
Count of elements : 3578
Stream size : 24.4 MiB (0%)
Language : Thai
Default : No
Forced : No

Text #21
ID : 30
Format : PGS
Muxing mode : zlib
Codec ID : S_HDMV/PGS
Codec ID/Info : Picture based subtitle format used on BDs/HD-DVDs
Duration : 4 h 0 min
Bit rate : 57 b/s
Frame rate : 0.001 FPS
Count of elements : 14
Stream size : 102 KiB (0%)
Title : FORCED
Language : French
Default : No
Forced : No

Text #22
ID : 31
Format : PGS
Muxing mode : zlib
Codec ID : S_HDMV/PGS
Codec ID/Info : Picture based subtitle format used on BDs/HD-DVDs
Duration : 2 h 11 min
Bit rate : 63 b/s
Frame rate : 0.001 FPS
Count of elements : 6
Stream size : 61.1 KiB (0%)
Title : FORCED
Language : German
Default : No
Forced : No

Text #23
ID : 32
Format : PGS
Muxing mode : zlib
Codec ID : S_HDMV/PGS
Codec ID/Info : Picture based subtitle format used on BDs/HD-DVDs
Duration : 2 h 11 min
Bit rate : 42 b/s
Frame rate : 0.001 FPS
Count of elements : 6
Stream size : 40.8 KiB (0%)
Title : FORCED
Language : Italian
Default : No
Forced : No

Text #24
ID : 33
Format : PGS
Muxing mode : zlib
Codec ID : S_HDMV/PGS
Codec ID/Info : Picture based subtitle format used on BDs/HD-DVDs
Duration : 2 h 11 min
Bit rate : 49 b/s
Frame rate : 0.001 FPS
Count of elements : 6
Stream size : 48.3 KiB (0%)
Title : FORCED
Language : Spanish
Default : No
Forced : No

Text #25
ID : 34
Format : PGS
Muxing mode : zlib
Codec ID : S_HDMV/PGS
Codec ID/Info : Picture based subtitle format used on BDs/HD-DVDs
Duration : 4 h 5 min
Bit rate : 14.5 kb/s
Frame rate : 0.239 FPS
Count of elements : 3524
Stream size : 25.5 MiB (0%)
Language : Japanese
Default : No
Forced : No

Text #26
ID : 35
Format : PGS
Muxing mode : zlib
Codec ID : S_HDMV/PGS
Codec ID/Info : Picture based subtitle format used on BDs/HD-DVDs
Duration : 3 h 56 min
Bit rate : 820 b/s
Frame rate : 0.010 FPS
Count of elements : 148
Stream size : 1.39 MiB (0%)
Title : FORCED
Language : Japanese
Default : No
Forced : No

Menu
00:00:00.000 : en:Chapter 01
00:06:24.300 : en:Chapter 02
00:09:21.227 : en:Chapter 03
00:11:21.430 : en:Chapter 04
00:18:23.268 : en:Chapter 05
00:23:04.966 : en:Chapter 06
00:27:03.288 : en:Chapter 07
00:29:00.655 : en:Chapter 08
00:37:06.265 : en:Chapter 09
00:40:02.400 : en:Chapter 10
00:42:02.353 : en:Chapter 11
00:47:52.160 : en:Chapter 12
00:50:18.265 : en:Chapter 13
00:52:18.468 : en:Chapter 14
00:55:35.290 : en:Chapter 15
00:59:36.364 : en:Chapter 16
01:00:23.661 : en:Chapter 17
01:00:50.355 : en:Chapter 18
01:04:30.074 : en:Chapter 19
01:07:15.823 : en:Chapter 20
01:10:34.939 : en:Chapter 21
01:14:54.573 : en:Chapter 22
01:17:21.928 : en:Chapter 23
01:19:21.590 : en:Chapter 24
01:20:00.879 : en:Chapter 25
01:21:26.756 : en:Chapter 26
01:23:48.898 : en:Chapter 27
01:29:07.467 : en:Chapter 28
01:33:57.256 : en:Chapter 29
01:38:07.840 : en:Chapter 30
01:42:49.288 : en:Chapter 31
01:45:34.202 : en:Chapter 32
01:46:57.244 : en:Chapter 33
01:49:24.057 : en:Chapter 34
01:51:09.746 : en:Chapter 35
01:58:39.403 : en:Chapter 36
02:07:40.256 : en:Chapter 01
02:08:43.736 : en:Chapter 02
02:17:51.366 : en:Chapter 03
02:19:41.476 : en:Chapter 04
02:20:17.887 : en:Chapter 05
02:21:51.314 : en:Chapter 06
02:22:58.339 : en:Chapter 07
02:29:00.201 : en:Chapter 08
02:30:05.558 : en:Chapter 09
02:32:30.578 : en:Chapter 10
02:36:44.623 : en:Chapter 11
02:38:52.084 : en:Chapter 12
02:43:47.254 : en:Chapter 13
02:45:17.677 : en:Chapter 14
02:47:03.825 : en:Chapter 15
02:47:56.419 : en:Chapter 16
02:48:40.672 : en:Chapter 17
02:51:16.369 : en:Chapter 18
02:53:18.950 : en:Chapter 19
02:54:26.017 : en:Chapter 20
02:56:41.986 : en:Chapter 21
02:57:34.080 : en:Chapter 22
03:04:29.620 : en:Chapter 23
03:06:12.347 : en:Chapter 24
03:07:41.144 : en:Chapter 25
03:08:31.361 : en:Chapter 26
03:12:13.041 : en:Chapter 27
03:16:24.667 : en:Chapter 28
03:19:40.405 : en:Chapter 29
03:23:14.327 : en:Chapter 30
03:25:27.543 : en:Chapter 31
03:26:29.897 : en:Chapter 32
03:28:26.347 : en:Chapter 33
03:29:00.172 : en:Chapter 34
03:34:38.927 : en:Chapter 35
03:36:52.311 : en:Chapter 36
03:40:21.686 : en:Chapter 37
03:42:44.746 : en:Chapter 38
03:47:37.413 : en:Chapter 39
03:52:19.362 : en:Chapter 40
04:01:38.337 : en:Chapter 41
04:12:45.503 : en:Chapter 42


新种资源推荐使用qBittorrent、uTorrent等下载软件,有条件的推荐115更好的下载软件!

指环王3:王者无敌(157.5GB)
The.Lord.of.the.Rings.The.Return.of.the.King.2003.EXTENDED.PROPER.2160p.BluRay.REMUX.HEVC.DTS-HD.MA.TrueHD.7.1.Atmos-FGT-【2160P蓝光REMUX】

游客,如果您要查看本帖隐藏内容请回复




QQ4K海报.gif




上一篇:指环王2:双塔奇兵 [简繁中字] (2002) 4K蓝光REMUX版本下载
下一篇:堕落天使(德版)/Fallen.Angels(1994)4K蓝光[原盘+REMUX]版本下载
回复

使用道具 举报

4

主题

1383

帖子

4171

积分

4K家园VIP

Rank: 9Rank: 9Rank: 9

积分
4171
发表于 2022-9-21 10:07:10 | 显示全部楼层
谢谢楼主
回复 支持 反对

使用道具 举报

0

主题

8663

帖子

2万

积分

4K家园VIP

Rank: 9Rank: 9Rank: 9

积分
20189
发表于 2022-9-21 23:48:54 | 显示全部楼层
太好啦&萬分感謝版主的無私發佈分享%
回复 支持 反对

使用道具 举报

0

主题

7

帖子

20

积分

新手上路

Rank: 1

积分
20
发表于 2022-9-23 11:41:05 | 显示全部楼层
太好啦&萬分感謝版主的無私發佈分享%
回复 支持 反对

使用道具 举报

0

主题

7

帖子

20

积分

新手上路

Rank: 1

积分
20
发表于 2022-9-23 11:41:19 | 显示全部楼层
666666666666666感谢
回复 支持 反对

使用道具 举报

0

主题

9

帖子

64

积分

新手上路

Rank: 1

积分
64
发表于 2022-9-23 18:06:01 | 显示全部楼层
感謝版主分享
回复 支持 反对

使用道具 举报

2

主题

1433

帖子

4119

积分

4K家园VIP

Rank: 9Rank: 9Rank: 9

积分
4119
发表于 2022-9-25 08:38:42 | 显示全部楼层
谢谢楼主
回复 支持 反对

使用道具 举报

40

主题

1530

帖子

4352

积分

4K家园VIP

Rank: 9Rank: 9Rank: 9

积分
4352
发表于 6 天前 | 显示全部楼层
楼主这资源不错,我收藏了
回复 支持 反对

使用道具 举报

1

主题

1373

帖子

4135

积分

4K家园VIP

Rank: 9Rank: 9Rank: 9

积分
4135
发表于 6 天前 | 显示全部楼层
4K家园不错,希望这种资源越多越好
回复 支持 反对

使用道具 举报

4

主题

1438

帖子

4150

积分

中级会员

Rank: 4

积分
4150
发表于 5 天前 | 显示全部楼层
4K家园不错,希望这种资源越多越好
回复 支持 反对

使用道具 举报

您需要登录后才可以回帖 登录 | 立即注册

本版积分规则

精彩图文
Archiver|手机版|TAG|Sitemap|新帖|专题|联系我们:邮箱: 4kjia.com@gmail.com   

4k家园   ©2019