[4K电影] 为耶稣鸣喇叭,拯救你的灵魂 (2013) 4K高清版本下载

[复制链接]

2327

主题

2476

帖子

1万

积分

超级版主

Rank: 8Rank: 8

积分
17940
 楼主| 发表于 2022-9-21 15:14:33 | 显示全部楼层 |阅读模式
本帖最后由 最爱4K哟 于 2022-9-21 15:17 编辑

QQ图片20220921150521_副本.png

◎标  题 为耶稣鸣喇叭,拯救你的灵魂
◎片  名 Honk for Jesus, Save Your Soul
◎年  代 2022
◎产  地 美国
◎类  别 喜剧
◎语  言 英语
◎上映日期 2022-01-23(圣丹斯电影节) / 2022-09-02(美国)
◎IMDb评分 5.3/10 from 2126 users Updated : 2022-09-17
◎IMDb链接 https://www.imdb.com/title/tt12655436/
◎豆瓣评分 0/10 from 0 users
◎豆瓣链接 https://movie.douban.com/subject/35694782/
◎片  长 102分钟
◎演  员 斯特林·K·布朗 Sterling K. Brown
       雷吉娜·赫尔 Regina Hall
       妮可·贝哈瑞 Nicole Beharie
       奥斯汀·克鲁特 Austin Crute
       康菲德斯 Conphidance

◎简  介

  在一起重大丑闻之后,著名南方浸礼会梅加教堂的第一夫人三一儿童会试图帮助她的牧师丈夫李·柯蒂斯·儿童会重建他们的教会。

Video
ID : 1
Format : HEVC
Format/Info : High Efficiency Video Coding
Format profile : Main 10@L5@High
Codec ID : V_MPEGH/ISO/HEVC
Duration : 1 h 43 min
Bit rate : 11.7 Mb/s
Width : 3 840 pixels
Height : 2 160 pixels
Display aspect ratio : 16:9
Frame rate mode : Constant
Frame rate : 23.976 FPS
Color space : YUV
Chroma subsampling : 4:2:0
Bit depth : 10 bits
Bits/(Pixel*Frame) : 0.059
Stream size : 8.51 GiB (97%)
Default : Yes
Forced : No
Color range : Limited
Color primaries : BT.709
Transfer characteristics : BT.709
Matrix coefficients : BT.709

Audio
ID : 2
Format : AC-3
Format/Info : Audio Coding 3
Commercial name : Dolby Digital
Codec ID : A_AC3
Duration : 1 h 43 min
Bit rate mode : Constant
Bit rate : 384 kb/s
Channel(s) : 6 channels
Channel layout : L R C LFE Ls Rs
Sampling rate : 48.0 kHz
Frame rate : 31.250 FPS (1536 SPF)
Compression mode : Lossy
Stream size : 285 MiB (3%)
Language : English
Service kind : Complete Main
Default : Yes
Forced : No

Text
ID : 3
Format : UTF-8
Codec ID : S_TEXT/UTF8
Codec ID/Info : UTF-8 Plain Text
Duration : 1 h 43 min
Bit rate : 86 b/s
Frame rate : 0.346 FPS
Count of elements : 2139
Stream size : 65.5 KiB (0%)
Language : English
Default : Yes
Forced : No

资源速度为零或资源敏感被和谐时,推荐使用qBittorrent等下载软件,有条件的推荐115更好的下载软件!

下载地址:

游客,如果您要查看本帖隐藏内容请回复

游客,如果您要查看本帖隐藏内容请回复











上一篇:菲利普船长[简繁中字] / Captain Phillips (2013) 4K高清版本下载
下一篇:黑湖妖潭 / Creature from the Black Lagoon (1954)4K高清版本下载
回复

使用道具 举报

1

主题

1327

帖子

3799

积分

4K家园VIP

Rank: 9Rank: 9Rank: 9

积分
3799
发表于 2022-9-21 15:14:37 | 显示全部楼层
好,很好,非常好!
回复 支持 反对

使用道具 举报

1

主题

1314

帖子

3968

积分

4K家园VIP

Rank: 9Rank: 9Rank: 9

积分
3968
发表于 2022-9-21 21:05:59 | 显示全部楼层
试试先,好用再说
回复 支持 反对

使用道具 举报

0

主题

8663

帖子

2万

积分

4K家园VIP

Rank: 9Rank: 9Rank: 9

积分
20189
发表于 2022-9-21 23:51:51 | 显示全部楼层
太好啦&萬分感謝版主的無私發佈分享%
回复 支持 反对

使用道具 举报

0

主题

18

帖子

38

积分

新手上路

Rank: 1

积分
38
发表于 2022-9-22 06:08:55 | 显示全部楼层
试试先,好用再说
回复 支持 反对

使用道具 举报

0

主题

475

帖子

2895

积分

注册会员

Rank: 2

积分
2895
发表于 2022-9-22 11:54:18 | 显示全部楼层
感謝版主的無私分享
回复 支持 反对

使用道具 举报

53

主题

1253

帖子

3827

积分

4K家园VIP

Rank: 9Rank: 9Rank: 9

积分
3827
发表于 2022-9-22 16:01:37 | 显示全部楼层
确实不错,顶先
回复 支持 反对

使用道具 举报

1

主题

1690

帖子

4726

积分

4K家园VIP

Rank: 9Rank: 9Rank: 9

积分
4726
发表于 2022-9-22 20:25:44 | 显示全部楼层
楼主呀,,,您太有才了。。。
回复 支持 反对

使用道具 举报

73

主题

1570

帖子

4540

积分

4K家园VIP

Rank: 9Rank: 9Rank: 9

积分
4540
发表于 2022-9-22 22:10:07 | 显示全部楼层
站位支持
回复 支持 反对

使用道具 举报

0

主题

42

帖子

1931

积分

4K家园VIP

Rank: 9Rank: 9Rank: 9

积分
1931
发表于 2022-9-23 09:30:43 | 显示全部楼层
那个2013是啥意思??
回复 支持 反对

使用道具 举报

您需要登录后才可以回帖 登录 | 立即注册

本版积分规则

精彩图文
Archiver|手机版|TAG|Sitemap|新帖|专题|联系我们:邮箱: 4kjia.com@gmail.com   

4k家园   ©2019