[4K电影] 黑湖妖潭 / Creature from the Black Lagoon (1954)4K高清版本下载

[复制链接]

2327

主题

2476

帖子

1万

积分

超级版主

Rank: 8Rank: 8

积分
17940
 楼主| 发表于 2022-9-22 20:07:39 | 显示全部楼层 |阅读模式

QQ图片20220922200544_副本.png

◎译  名 黑湖妖潭/黑湖妖谭/黑湖怪兽/Black Lagoon
◎片  名 Creature from the Black Lagoon
◎年  代 1954
◎产  地 美国
◎类  别 科幻/恐怖
◎语  言 英语
◎上映日期 1954-03-05
◎IMDb评分 6.9/10 from 30422 users 更新 : 2022-09-21
◎IMDb链接 https://www.imdb.com/title/tt0046876/
◎豆瓣评分 6.8/10 from 1203 users users 更新 : 2022-09-21
◎豆瓣链接 https://movie.douban.com/subject/1771608/
◎导  演 杰克·阿诺德 Jack Arnold
◎编  剧 哈里·埃塞克斯 Harry Essex / 阿瑟·A·罗斯 Arthur A. Ross / 莫里斯·齐姆 Maurice Zimm /威廉·阿伦德 William Alland
◎主  演 理查德·加尔森 Richard Carlson
       朱莉·亚当斯 Julie Adams
       理查德·邓宁 Richard Denning
       安东尼奥·莫雷诺 Antonio Moreno
       内斯特帕瓦 Nestor Paiva
       怀特·毕塞尔 Whit Bissell
       贝尔尼·戈齐耶 Bernie Gozier
       亨利·A·埃斯卡兰特 Henry A. Escalante
       瑞科·布朗宁 Ricou Browning
       Ben Chapman Ben Chapman
       阿特·吉尔摩 Art Gilmore
       佩里·洛佩兹 Perry Lopez
       Sydney Mason Sydney Mason
       罗德·雷德温 Rodd Redwing


◎简  介


  本片为经典惊悚电影,叙述地质小队来到亚马逊丛林里,科学家发现海洋与陆地交接间有种恐怖生物,长个骷髅手和蛛网指。他们接着又发现半人半鱼的生物,试图要捕捉牠,不久这可怕生物就要反扑。

Video
ID : 1
Format : HEVC
Format/Info : High Efficiency Video Coding
Format profile : Main 10@L5@High
HDR format : Dolby Vision, Version 1.0, dvhe.05.06, BL+RPU
Codec ID : V_MPEGH/ISO/HEVC
Duration : 1 h 19 min
Bit rate : 25.0 Mb/s
Width : 3 840 pixels
Height : 2 072 pixels
Display aspect ratio : 1.85:1
Frame rate mode : Constant
Frame rate : 23.976 (24000/1001) FPS
Color space : YUV
Chroma subsampling : 4:2:0
Bit depth : 10 bits
Bits/(Pixel*Frame) : 0.131
Stream size : 13.8 GiB (93%)
Default : Yes
Forced : No

Audio #1
ID : 2
Format : DTS XLL
Format/Info : Digital Theater Systems
Commercial name : DTS-HD Master Audio
Codec ID : A_DTS
Duration : 1 h 19 min
Bit rate mode : Variable
Bit rate : 1 859 kb/s
Channel(s) : 2 channels
Channel layout : L R
Sampling rate : 48.0 kHz
Frame rate : 93.750 FPS (512 SPF)
Bit depth : 24 bits
Compression mode : Lossless
Stream size : 1.03 GiB (7%)
Title : DTS-HD MA 2.0
Language : English
Default : Yes
Forced : No

Audio #2
ID : 3
Format : AAC LC
Format/Info : Advanced Audio Codec Low Complexity
Codec ID : A_AAC-2
Duration : 1 h 19 min
Bit rate : 120 kb/s
Channel(s) : 2 channels
Channel layout : L R
Sampling rate : 48.0 kHz
Frame rate : 46.875 FPS (1024 SPF)
Compression mode : Lossy
Stream size : 68.1 MiB (0%)
Title : AAC 2.0
Language : English
Default : No
Forced : No

Text #1
ID : 4
Format : UTF-8
Codec ID : S_TEXT/UTF8
Codec ID/Info : UTF-8 Plain Text
Duration : 1 h 18 min
Bit rate : 46 b/s
Frame rate : 0.193 FPS
Count of elements : 913
Stream size : 26.8 KiB (0%)
Language : English
Default : Yes
Forced : No

Text #2
ID : 5
Format : PGS
Muxing mode : zlib
Codec ID : S_HDMV/PGS
Codec ID/Info : Picture based subtitle format used on BDs/HD-DVDs
Duration : 1 h 16 min
Bit rate : 29.3 kb/s
Frame rate : 0.333 FPS
Count of elements : 1537
Stream size : 16.1 MiB (0%)
Language : English
Default : No
Forced : No

Text #3
ID : 6
Format : PGS
Muxing mode : zlib
Codec ID : S_HDMV/PGS
Codec ID/Info : Picture based subtitle format used on BDs/HD-DVDs
Duration : 1 h 17 min
Bit rate : 20.7 kb/s
Frame rate : 0.234 FPS
Count of elements : 1094
Stream size : 11.5 MiB (0%)
Language : French
Default : No
Forced : No

Text #4
ID : 7
Format : PGS
Muxing mode : zlib
Codec ID : S_HDMV/PGS
Codec ID/Info : Picture based subtitle format used on BDs/HD-DVDs
Duration : 1 h 17 min
Bit rate : 22.4 kb/s
Frame rate : 0.229 FPS
Count of elements : 1070
Stream size : 12.5 MiB (0%)
Language : Spanish
Default : No
Forced : No

Menu
00:00:00.000 : en:Chapter 01
00:04:07.414 : en:Chapter 02
00:08:01.231 : en:Chapter 03
00:14:47.095 : en:Chapter 04
00:19:51.524 : en:Chapter 05
00:24:14.788 : en:Chapter 06
00:28:08.813 : en:Chapter 07
00:34:11.426 : en:Chapter 08
00:40:07.115 : en:Chapter 09
00:47:04.157 : en:Chapter 10
00:52:44.330 : en:Chapter 11
00:58:55.994 : en:Chapter 12
01:02:39.718 : en:Chapter 13
01:07:46.733 : en:Chapter 14
01:13:11.099 : en:Chapter 15
01:17:56.885 : en:Chapter 16


资源速度为零或资源敏感被和谐时,推荐使用qBittorrent等下载软件,有条件的推荐115更好的下载软件!

下载地址:


游客,如果您要查看本帖隐藏内容请回复

游客,如果您要查看本帖隐藏内容请回复

游客,如果您要查看本帖隐藏内容请回复

游客,如果您要查看本帖隐藏内容请回复





上一篇:为耶稣鸣喇叭,拯救你的灵魂 (2013) 4K高清版本下载
下一篇:西德尼[简繁粤中字] / Sidney (2022) 4K高清版本下载
回复

使用道具 举报

43

主题

1249

帖子

3751

积分

4K家园VIP

Rank: 9Rank: 9Rank: 9

积分
3751
发表于 2022-9-22 20:07:43 | 显示全部楼层
好,很好,非常好!
回复 支持 反对

使用道具 举报

2

主题

1430

帖子

4308

积分

4K家园VIP

Rank: 9Rank: 9Rank: 9

积分
4308
发表于 2022-9-22 21:24:46 | 显示全部楼层
嘘,低调。
回复 支持 反对

使用道具 举报

3

主题

1422

帖子

4092

积分

4K家园VIP

Rank: 9Rank: 9Rank: 9

积分
4092
发表于 昨天 17:17 | 显示全部楼层
4K电影下个试试
回复 支持 反对

使用道具 举报

您需要登录后才可以回帖 登录 | 立即注册

本版积分规则

精彩图文
Archiver|手机版|TAG|Sitemap|新帖|专题|联系我们:邮箱: 4kjia.com@gmail.com   

4k家园   ©2019