[4K UHD 蓝光原盘] 闪灵 [简繁中字] / The Shining (1980) 4K蓝光REMUX版本下载

[复制链接]

1914

主题

2003

帖子

2万

积分

超级版主

Rank: 8Rank: 8

积分
20445
 楼主| 发表于 2022-9-22 21:18:33 | 显示全部楼层 |阅读模式
本帖最后由 没完没了 于 2022-9-22 21:19 编辑

QQ图片20220922210611_副本.png

◎标  题 闪灵
◎译  名 鬼店(台) / 幻觉 / 幽光
◎片  名 The Shining
◎年  代 1980
◎产  地 英国 / 美国
◎类  别 剧情 / 悬疑 / 恐怖
◎语  言 英语
◎上映日期 1980-05-23(美国)
◎IMDb评分 8.4/10 from 1006162 users 更新 : 2022-09-22
◎IMDb链接 https://www.imdb.com/title/tt0081505/
◎豆瓣评分 8.3/10 from 465129 users 更新 : 2022-09-22
◎豆瓣链接 https://movie.douban.com/subject/1292225/
◎片  长 119分钟(欧洲版)
◎导  演 斯坦利·库布里克 Stanley Kubrick
◎编  剧 斯坦利·库布里克 Stanley Kubrick / 黛安·约翰逊 Diane Johnson / 斯蒂芬·金 Stephen King
◎演  员 杰克·尼科尔森 Jack Nicholson
       谢莉·杜瓦尔 Shelley Duvall
       丹尼·劳埃德 Danny Lloyd
       斯加特曼·克罗索斯 Scatman Crothers
       巴瑞·尼尔森 Barry Nelson
       菲利普·斯通 Philip Stone
       乔·托克尔 Joe Turkel
       安妮·杰克逊 Anne Jackson
       托尼·伯顿 Tony Burton
       薇薇安·库布里克 Vivian Kubrick
       莉娅·贝尔达姆 Lia Beldam
       巴里·丹尼 Barry Dennen
       丽莎·伯恩斯 Lisa Burns
       路易丝·伯恩斯 Louise Burns
       斯坦利·库布里克 Stanley Kubrick
       简·哈兰 Jan Harlan
       马丁·理查兹 Martin Richards
       沃尔特·卡洛斯 Wendy Carlos
       雷切尔·埃尔金德 Rachel Elkind
       格雷戈·迈吉里弗雷 Greg MacGillivray
       约翰·奥尔科特 John Alcott
       罗伊·沃克 Roy Walker
       莱斯利·汤姆金斯 Leslie Tomkins
       米兰拉·坎农诺 Milena Canonero
       卡塔琳娜·库布里克 Katharina Kubrick
       布莱恩·W·库克 Brian W. Cook
       利昂·维塔利 Leon Vitali


◎简  介


  杰克(杰克•尼科尔森 Jack Nicholson 饰)是一个作家。一个冬天,他得到了一个看管山顶酒店的差事。这正合杰克的意思,他正好可以有一个幽静的地方写作。于是杰克带着妻儿搬进了酒店。
冬天大雪封路,山顶酒店只有杰克一家三口。从他们一搬进来,杰克的妻子温蒂(谢莉·杜瓦尔 Shelley Duvall 饰)就发现这里气氛诡异,杰克的儿子丹尼(丹尼·劳埃德 Danny Lloyd 饰)经常看到一些他不认识的人,但这里除了他们一家别无他人。而杰克除了一整天闷头写作外,脾气亦变得越来越古怪。
直到有一天,温蒂发现丈夫这些天来一直写就只有一句话:杰克发疯了!

Video
ID : 1
ID in the original source medium : 4113 (0x1011)
Format : HEVC
Format/Info : High Efficiency Video Coding
Format profile : Main 10@L5.1@High
HDR format : Dolby Vision, Version 1.0, dvhe.07.06, BL+EL+RPU, Blu-ray compatible / SMPTE ST 2094 App 4, Version 1, HDR10+ Profile B compatible
Codec ID : V_MPEGH/ISO/HEVC
Duration : 2 h 23 min
Bit rate : 74.3 Mb/s
Width : 3 840 pixels
Height : 2 160 pixels
Display aspect ratio : 16:9
Frame rate mode : Constant
Frame rate : 23.976 (24000/1001) FPS
Color space : YUV
Chroma subsampling : 4:2:0 (Type 2)
Bit depth : 10 bits
Bits/(Pixel*Frame) : 0.374
Stream size : 74.6 GiB (90%)
Language : English
Default : No
Forced : No
Color range : Limited
Color primaries : BT.2020
Transfer characteristics : PQ
Matrix coefficients : BT.2020 non-constant
Mastering display color primaries : Display P3
Mastering display luminance : min: 0.0050 cd/m2, max: 4000 cd/m2
Maximum Content Light Level : 1633 cd/m2
Maximum Frame-Average Light Level : 114 cd/m2
Original source medium : Blu-ray

Audio #1
ID : 2
ID in the original source medium : 4352 (0x1100)
Format : DTS XLL
Format/Info : Digital Theater Systems
Commercial name : DTS-HD Master Audio
Codec ID : A_DTS
Duration : 2 h 23 min
Bit rate mode : Variable
Bit rate : 4 098 kb/s
Channel(s) : 6 channels
Channel layout : C L R Ls Rs LFE
Sampling rate : 48.0 kHz
Frame rate : 93.750 FPS (512 SPF)
Bit depth : 24 bits
Compression mode : Lossless
Stream size : 4.12 GiB (5%)
Title : DTS-HD MA 5.1
Language : English
Default : Yes
Forced : No
Original source medium : Blu-ray

Audio #2
ID : 3
Format : AC-3
Format/Info : Audio Coding 3
Commercial name : Dolby Digital
Codec ID : A_AC3
Duration : 2 h 23 min
Bit rate mode : Constant
Bit rate : 640 kb/s
Channel(s) : 6 channels
Channel layout : L R C LFE Ls Rs
Sampling rate : 48.0 kHz
Frame rate : 31.250 FPS (1536 SPF)
Compression mode : Lossy
Stream size : 658 MiB (1%)
Title : DD 5.1
Language : English
Service kind : Complete Main
Default : No
Forced : No

Audio #3
ID : 4
ID in the original source medium : 4353 (0x1101)
Format : AC-3
Format/Info : Audio Coding 3
Commercial name : Dolby Digital
Codec ID : A_AC3
Duration : 2 h 23 min
Bit rate mode : Constant
Bit rate : 640 kb/s
Channel(s) : 6 channels
Channel layout : L R C LFE Ls Rs
Sampling rate : 48.0 kHz
Frame rate : 31.250 FPS (1536 SPF)
Compression mode : Lossy
Stream size : 658 MiB (1%)
Title : DD 5.1
Language : French
Service kind : Complete Main
Default : No
Forced : No
Original source medium : Blu-ray

Audio #4
ID : 5
ID in the original source medium : 4354 (0x1102)
Format : AC-3
Format/Info : Audio Coding 3
Commercial name : Dolby Digital
Codec ID : A_AC3
Duration : 2 h 23 min
Bit rate mode : Constant
Bit rate : 640 kb/s
Channel(s) : 6 channels
Channel layout : L R C LFE Ls Rs
Sampling rate : 48.0 kHz
Frame rate : 31.250 FPS (1536 SPF)
Compression mode : Lossy
Stream size : 658 MiB (1%)
Title : DD 5.1
Language : German
Service kind : Complete Main
Default : No
Forced : No
Original source medium : Blu-ray

Audio #5
ID : 6
ID in the original source medium : 4355 (0x1103)
Format : AC-3
Format/Info : Audio Coding 3
Commercial name : Dolby Digital
Format settings : Dolby Surround
Codec ID : A_AC3
Duration : 2 h 23 min
Bit rate mode : Constant
Bit rate : 192 kb/s
Channel(s) : 2 channels
Channel layout : L R
Sampling rate : 48.0 kHz
Frame rate : 31.250 FPS (1536 SPF)
Compression mode : Lossy
Stream size : 197 MiB (0%)
Title : DD 2.0
Language : Italian
Service kind : Complete Main
Default : No
Forced : No
Original source medium : Blu-ray

Audio #6
ID : 7
ID in the original source medium : 4356 (0x1104)
Format : AC-3
Format/Info : Audio Coding 3
Commercial name : Dolby Digital
Codec ID : A_AC3
Duration : 2 h 23 min
Bit rate mode : Constant
Bit rate : 640 kb/s
Channel(s) : 6 channels
Channel layout : L R C LFE Ls Rs
Sampling rate : 48.0 kHz
Frame rate : 31.250 FPS (1536 SPF)
Compression mode : Lossy
Stream size : 658 MiB (1%)
Title : DD 5.1
Language : Spanish
Service kind : Complete Main
Default : No
Forced : No
Original source medium : Blu-ray

Audio #7
ID : 8
ID in the original source medium : 4357 (0x1105)
Format : AC-3
Format/Info : Audio Coding 3
Commercial name : Dolby Digital
Codec ID : A_AC3
Duration : 2 h 23 min
Bit rate mode : Constant
Bit rate : 640 kb/s
Channel(s) : 6 channels
Channel layout : L R C LFE Ls Rs
Sampling rate : 48.0 kHz
Frame rate : 31.250 FPS (1536 SPF)
Compression mode : Lossy
Stream size : 658 MiB (1%)
Title : DD 5.1
Language : Polish
Service kind : Complete Main
Default : No
Forced : No
Original source medium : Blu-ray

Audio #8
ID : 9
ID in the original source medium : 4358 (0x1106)
Format : AC-3
Format/Info : Audio Coding 3
Commercial name : Dolby Digital
Format settings : Dolby Surround
Codec ID : A_AC3
Duration : 2 h 23 min
Bit rate mode : Constant
Bit rate : 192 kb/s
Channel(s) : 2 channels
Channel layout : L R
Sampling rate : 48.0 kHz
Frame rate : 31.250 FPS (1536 SPF)
Compression mode : Lossy
Stream size : 197 MiB (0%)
Title : DD 2.0
Language : English
Service kind : Complete Main
Default : No
Forced : No
Original source medium : Blu-ray

Text #1
ID : 10
Format : UTF-8
Codec ID : S_TEXT/UTF8
Codec ID/Info : UTF-8 Plain Text
Duration : 2 h 14 min
Bit rate : 41 b/s
Frame rate : 0.172 FPS
Count of elements : 1388
Stream size : 40.5 KiB (0%)
Language : English
Default : Yes
Forced : No

Text #2
ID : 11
Format : UTF-8
Codec ID : S_TEXT/UTF8
Codec ID/Info : UTF-8 Plain Text
Duration : 2 h 16 min
Bit rate : 41 b/s
Frame rate : 0.176 FPS
Count of elements : 1446
Stream size : 41.5 KiB (0%)
Title : SDH
Language : English
Default : No
Forced : No

Text #3
ID : 12
ID in the original source medium : 4769 (0x12A1)
Format : PGS
Muxing mode : zlib
Codec ID : S_HDMV/PGS
Codec ID/Info : Picture based subtitle format used on BDs/HD-DVDs
Duration : 2 h 16 min
Bit rate : 23.4 kb/s
Frame rate : 0.371 FPS
Count of elements : 3042
Stream size : 22.8 MiB (0%)
Language : English
Default : No
Forced : No
Original source medium : Blu-ray

Text #4
ID : 13
ID in the original source medium : 4770 (0x12A2)
Format : PGS
Muxing mode : zlib
Codec ID : S_HDMV/PGS
Codec ID/Info : Picture based subtitle format used on BDs/HD-DVDs
Duration : 2 h 20 min
Bit rate : 18.4 kb/s
Frame rate : 0.282 FPS
Count of elements : 2378
Stream size : 18.5 MiB (0%)
Language : French
Default : No
Forced : No
Original source medium : Blu-ray

Text #5
ID : 14
ID in the original source medium : 4771 (0x12A3)
Format : PGS
Muxing mode : zlib
Codec ID : S_HDMV/PGS
Codec ID/Info : Picture based subtitle format used on BDs/HD-DVDs
Duration : 2 h 18 min
Bit rate : 24.5 kb/s
Frame rate : 0.369 FPS
Count of elements : 3062
Stream size : 24.2 MiB (0%)
Language : German
Default : No
Forced : No
Original source medium : Blu-ray

Text #6
ID : 15
ID in the original source medium : 4772 (0x12A4)
Format : PGS
Muxing mode : zlib
Codec ID : S_HDMV/PGS
Codec ID/Info : Picture based subtitle format used on BDs/HD-DVDs
Duration : 2 h 18 min
Bit rate : 24.0 kb/s
Frame rate : 0.368 FPS
Count of elements : 3050
Stream size : 23.7 MiB (0%)
Language : Italian
Default : No
Forced : No
Original source medium : Blu-ray

Text #7
ID : 16
ID in the original source medium : 4773 (0x12A5)
Format : PGS
Muxing mode : zlib
Codec ID : S_HDMV/PGS
Codec ID/Info : Picture based subtitle format used on BDs/HD-DVDs
Duration : 2 h 18 min
Bit rate : 18.0 kb/s
Frame rate : 0.292 FPS
Count of elements : 2420
Stream size : 17.8 MiB (0%)
Language : Dutch
Default : No
Forced : No
Original source medium : Blu-ray

Text #8
ID : 17
ID in the original source medium : 4774 (0x12A6)
Format : PGS
Muxing mode : zlib
Codec ID : S_HDMV/PGS
Codec ID/Info : Picture based subtitle format used on BDs/HD-DVDs
Duration : 2 h 19 min
Bit rate : 19.4 kb/s
Frame rate : 0.322 FPS
Count of elements : 2698
Stream size : 19.4 MiB (0%)
Language : 中文
Default : No
Forced : No
Original source medium : Blu-ray


Text #9
ID : 18
ID in the original source medium : 4775 (0x12A7)
Format : PGS
Muxing mode : zlib
Codec ID : S_HDMV/PGS
Codec ID/Info : Picture based subtitle format used on BDs/HD-DVDs
Duration : 2 h 19 min
Bit rate : 15.0 kb/s
Frame rate : 0.315 FPS
Count of elements : 2638
Stream size : 15.0 MiB (0%)
Language : Korean
Default : No
Forced : No
Original source medium : Blu-ray

Text #10
ID : 19
ID in the original source medium : 4776 (0x12A8)
Format : PGS
Muxing mode : zlib
Codec ID : S_HDMV/PGS
Codec ID/Info : Picture based subtitle format used on BDs/HD-DVDs
Duration : 2 h 18 min
Bit rate : 18.3 kb/s
Frame rate : 0.317 FPS
Count of elements : 2628
Stream size : 18.1 MiB (0%)
Language : Spanish
Default : No
Forced : No
Original source medium : Blu-ray

Text #11
ID : 20
ID in the original source medium : 4777 (0x12A9)
Format : PGS
Muxing mode : zlib
Codec ID : S_HDMV/PGS
Codec ID/Info : Picture based subtitle format used on BDs/HD-DVDs
Duration : 2 h 19 min
Bit rate : 10.7 kb/s
Frame rate : 0.313 FPS
Count of elements : 2624
Stream size : 10.7 MiB (0%)
Language : Arabic
Default : No
Forced : No
Original source medium : Blu-ray

Text #12
ID : 21
ID in the original source medium : 4778 (0x12AA)
Format : PGS
Muxing mode : zlib
Codec ID : S_HDMV/PGS
Codec ID/Info : Picture based subtitle format used on BDs/HD-DVDs
Duration : 2 h 19 min
Bit rate : 18.0 kb/s
Frame rate : 0.323 FPS
Count of elements : 2708
Stream size : 18.0 MiB (0%)
Language : Czech
Default : No
Forced : No
Original source medium : Blu-ray

Text #13
ID : 22
ID in the original source medium : 4779 (0x12AB)
Format : PGS
Muxing mode : zlib
Codec ID : S_HDMV/PGS
Codec ID/Info : Picture based subtitle format used on BDs/HD-DVDs
Duration : 2 h 20 min
Bit rate : 19.6 kb/s
Frame rate : 0.295 FPS
Count of elements : 2494
Stream size : 19.7 MiB (0%)
Language : Danish
Default : No
Forced : No
Original source medium : Blu-ray

Text #14
ID : 23
ID in the original source medium : 4780 (0x12AC)
Format : PGS
Muxing mode : zlib
Codec ID : S_HDMV/PGS
Codec ID/Info : Picture based subtitle format used on BDs/HD-DVDs
Duration : 2 h 19 min
Bit rate : 15.6 kb/s
Frame rate : 0.236 FPS
Count of elements : 1978
Stream size : 15.6 MiB (0%)
Language : Finnish
Default : No
Forced : No
Original source medium : Blu-ray

Text #15
ID : 24
ID in the original source medium : 4781 (0x12AD)
Format : PGS
Muxing mode : zlib
Codec ID : S_HDMV/PGS
Codec ID/Info : Picture based subtitle format used on BDs/HD-DVDs
Duration : 2 h 19 min
Bit rate : 19.8 kb/s
Frame rate : 0.323 FPS
Count of elements : 2702
Stream size : 19.8 MiB (0%)
Language : Hungarian
Default : No
Forced : No
Original source medium : Blu-ray

Text #16
ID : 25
ID in the original source medium : 4782 (0x12AE)
Format : PGS
Muxing mode : zlib
Codec ID : S_HDMV/PGS
Codec ID/Info : Picture based subtitle format used on BDs/HD-DVDs
Duration : 2 h 19 min
Bit rate : 17.5 kb/s
Frame rate : 0.269 FPS
Count of elements : 2252
Stream size : 17.5 MiB (0%)
Language : Norwegian
Default : No
Forced : No
Original source medium : Blu-ray

Text #17
ID : 26
ID in the original source medium : 4783 (0x12AF)
Format : PGS
Muxing mode : zlib
Codec ID : S_HDMV/PGS
Codec ID/Info : Picture based subtitle format used on BDs/HD-DVDs
Duration : 2 h 19 min
Bit rate : 17.3 kb/s
Frame rate : 0.306 FPS
Count of elements : 2562
Stream size : 17.2 MiB (0%)
Language : Polish
Default : No
Forced : No
Original source medium : Blu-ray

Text #18
ID : 27
ID in the original source medium : 4784 (0x12B0)
Format : PGS
Muxing mode : zlib
Codec ID : S_HDMV/PGS
Codec ID/Info : Picture based subtitle format used on BDs/HD-DVDs
Duration : 2 h 18 min
Bit rate : 19.9 kb/s
Frame rate : 0.327 FPS
Count of elements : 2710
Stream size : 19.6 MiB (0%)
Language : Romanian
Default : No
Forced : No
Original source medium : Blu-ray

Text #19
ID : 28
ID in the original source medium : 4785 (0x12B1)
Format : PGS
Muxing mode : zlib
Codec ID : S_HDMV/PGS
Codec ID/Info : Picture based subtitle format used on BDs/HD-DVDs
Duration : 2 h 19 min
Bit rate : 20.6 kb/s
Frame rate : 0.314 FPS
Count of elements : 2634
Stream size : 20.5 MiB (0%)
Language : Russian
Default : No
Forced : No
Original source medium : Blu-ray

Text #20
ID : 29
ID in the original source medium : 4786 (0x12B2)
Format : PGS
Muxing mode : zlib
Codec ID : S_HDMV/PGS
Codec ID/Info : Picture based subtitle format used on BDs/HD-DVDs
Duration : 2 h 18 min
Bit rate : 17.0 kb/s
Frame rate : 0.282 FPS
Count of elements : 2338
Stream size : 16.8 MiB (0%)
Language : Swedish
Default : No
Forced : No
Original source medium : Blu-ray

Text #21
ID : 30
ID in the original source medium : 4787 (0x12B3)
Format : PGS
Muxing mode : zlib
Codec ID : S_HDMV/PGS
Codec ID/Info : Picture based subtitle format used on BDs/HD-DVDs
Duration : 2 h 18 min
Bit rate : 19.3 kb/s
Frame rate : 0.328 FPS
Count of elements : 2716
Stream size : 19.1 MiB (0%)
Language : Thai
Default : No
Forced : No
Original source medium : Blu-ray

Text #22
ID : 31
ID in the original source medium : 4788 (0x12B4)
Format : PGS
Muxing mode : zlib
Codec ID : S_HDMV/PGS
Codec ID/Info : Picture based subtitle format used on BDs/HD-DVDs
Duration : 2 h 21 min
Bit rate : 40.2 kb/s
Frame rate : 0.465 FPS
Count of elements : 3936
Stream size : 40.5 MiB (0%)
Language : 中文
Default : No
Forced : No
Original source medium : Blu-ray


Menu
00:00:00.000 : en:Chapter 01
00:03:00.388 : en:Chapter 02
00:05:04.846 : en:Chapter 03
00:10:33.799 : en:Chapter 04
00:12:08.394 : en:Chapter 05
00:14:24.280 : en:Chapter 06
00:17:37.556 : en:Chapter 07
00:20:30.896 : en:Chapter 08
00:24:58.622 : en:Chapter 09
00:28:51.563 : en:Chapter 10
00:34:10.089 : en:Chapter 11
00:40:28.801 : en:Chapter 12
00:46:00.924 : en:Chapter 13
00:46:52.226 : en:Chapter 14
00:49:17.079 : en:Chapter 15
00:51:16.198 : en:Chapter 16
00:57:01.876 : en:Chapter 17
00:58:36.846 : en:Chapter 18
01:02:37.086 : en:Chapter 19
01:06:05.753 : en:Chapter 20
01:09:00.469 : en:Chapter 21
01:16:52.107 : en:Chapter 22
01:22:18.558 : en:Chapter 23
01:25:29.582 : en:Chapter 24
01:31:41.120 : en:Chapter 25
01:34:03.804 : en:Chapter 26
01:35:48.576 : en:Chapter 27
01:39:30.547 : en:Chapter 28
01:43:49.806 : en:Chapter 29
01:49:26.059 : en:Chapter 30
01:54:24.440 : en:Chapter 31
01:58:44.617 : en:Chapter 32
02:01:09.553 : en:Chapter 33
02:05:29.980 : en:Chapter 34
02:07:32.561 : en:Chapter 35
02:10:23.482 : en:Chapter 36
02:12:10.047 : en:Chapter 37
02:15:03.345 : en:Chapter 38
02:18:56.745 : en:Chapter 39
02:21:16.301 : en:Chapter 40

新种推荐使用qBittorrent、uTorrent等下载软件,有条件的推荐115更好的下载软件!

闪灵(82.54GB)The.Shining.1980.PROPER.US.DC.2160p.BluRay.REMUX.HEVC.DTS-HD.MA.5.1-FGT
游客,如果您要查看本帖隐藏内容请回复


以下为4K蓝光英文版本
闪灵(12.56GB)The.Shining.1980.US.DC.2160p.UHD.BluRay.x265.10bit.HDR.DTS-HD.MA.5.1-RARBG
游客,如果您要查看本帖隐藏内容请回复

闪灵(8.70GB)The.Shining.1980.US.DC.2160p.UHD.BluRay.x265.10bit.HDR.DDP5.1-RARBG
游客,如果您要查看本帖隐藏内容请回复





QQ4K海报.gif

上一篇:巨鳄风暴 / Crawl (2019) 4K蓝光[原盘+REMUX]版本下载
下一篇:警察故事 / Police.Story (1985) 4K蓝光[原盘+REMUX]版本下载
回复

使用道具 举报

1

主题

1327

帖子

3809

积分

4K家园VIP

Rank: 9Rank: 9Rank: 9

积分
3809
发表于 2022-9-22 21:18:37 | 显示全部楼层
我只是看看啊,不说话
回复 支持 反对

使用道具 举报

0

主题

2

帖子

22

积分

新手上路

Rank: 1

积分
22
发表于 2022-9-22 22:14:35 | 显示全部楼层
想看 经典中的经典
回复 支持 反对

使用道具 举报

0

主题

8663

帖子

2万

积分

4K家园VIP

Rank: 9Rank: 9Rank: 9

积分
20189
发表于 2022-9-23 07:35:09 | 显示全部楼层
太好啦&萬分感謝版主的無私發佈分享%
回复 支持 反对

使用道具 举报

0

主题

475

帖子

2895

积分

注册会员

Rank: 2

积分
2895
发表于 2022-9-23 10:53:12 | 显示全部楼层
谢谢楼主分享
回复 支持 反对

使用道具 举报

0

主题

7

帖子

20

积分

新手上路

Rank: 1

积分
20
发表于 2022-9-23 11:39:03 | 显示全部楼层
我就看柯尼卡
回复 支持 反对

使用道具 举报

0

主题

55

帖子

780

积分

新手上路

Rank: 1

积分
780
发表于 前天 14:09 | 显示全部楼层
看禁闻http://v.ht/tttd 点击访问
回复

使用道具 举报

4

主题

1245

帖子

3767

积分

4K家园VIP

Rank: 9Rank: 9Rank: 9

积分
3767
发表于 1 小时前 | 显示全部楼层
这个资源我记得是一套的,楼主还有没有
回复 支持 反对

使用道具 举报

您需要登录后才可以回帖 登录 | 立即注册

本版积分规则

精彩图文
Archiver|手机版|TAG|Sitemap|新帖|专题|联系我们:邮箱: 4kjia.com@gmail.com   

4k家园   ©2019