[4K电影] 挖掘 / Dig (2022) 4K高清版本下载

[复制链接]

2327

主题

2476

帖子

1万

积分

超级版主

Rank: 8Rank: 8

积分
17940
 楼主| 发表于 2022-9-23 19:54:20 | 显示全部楼层 |阅读模式
本帖最后由 最爱4K哟 于 2022-9-23 21:27 编辑

QQ图片20220923193439_副本.png

◎译  名 挖掘 / 父女危机 / 聋哑父女求生记
◎片  名 Dig
◎年  代 2022
◎产  地 美国
◎类  别 惊悚
◎语  言 英语
◎上映日期 2022-09-23(美国)
◎IMDb评分 8.2/10 from 17 users
◎IMDb链接  https://www.imdb.com/title/tt14830582/
◎豆瓣评分 0/10 from 0 users
◎豆瓣链接 https://movie.douban.com/subject/35763097/
◎片  长 88分钟
◎导  演 K、 阿瑟·莱文 K. Asher Levin
◎编  剧 巴尼帕尔·阿布拉哈德 Banipal Ablakhad / Benhur Ablakhad Benhur Ablakhad
◎演  员 托马斯·简 Thomas Jane
                   埃米尔·赫希 Emile Hirsch
                   利贝·拉托 Liana Liberato


◎简  介


    一对患有严重听力损失的父亲和女儿来到工地工作。他们很快就被一对危险的夫妇劫持为人质,必须通力合作,以智胜俘虏,熬过一夜。

Video
ID : 1
Format : HEVC
Format/Info : High Efficiency Video Coding
Format profile : Main 10@L5@High
Codec ID : V_MPEGH/ISO/HEVC
Duration : 1 h 29 min
Bit rate : 20.5 Mb/s
Width : 3 828 pixels
Height : 1 596 pixels
Display aspect ratio : 2.40:1
Frame rate mode : Constant
Frame rate : 23.976 FPS
Color space : YUV
Chroma subsampling : 4:2:0
Bit depth : 10 bits
Bits/(Pixel*Frame) : 0.140
Stream size : 12.8 GiB (98%)
Language : English
Default : Yes
Forced : No
Color range : Limited
Color primaries : BT.709
Transfer characteristics : BT.709
Matrix coefficients : BT.709

Audio
ID : 2
Format : AC-3
Format/Info : Audio Coding 3
Commercial name : Dolby Digital
Codec ID : A_AC3
Duration : 1 h 29 min
Bit rate mode : Constant
Bit rate : 384 kb/s
Channel(s) : 6 channels
Channel layout : L R C LFE Ls Rs
Sampling rate : 48.0 kHz
Frame rate : 31.250 FPS (1536 SPF)
Compression mode : Lossy
Stream size : 246 MiB (2%)
Language : English
Service kind : Complete Main
Default : Yes
Forced : No

Text #1
ID : 3
Format : UTF-8
Codec ID : S_TEXT/UTF8
Codec ID/Info : UTF-8 Plain Text
Duration : 1 h 26 min
Bit rate : 79 b/s
Frame rate : 0.295 FPS
Count of elements : 1535
Stream size : 50.4 KiB (0%)
Title : SDH
Language : English
Default : No
Forced : No

Text #2
ID : 4
Format : UTF-8
Codec ID : S_TEXT/UTF8
Codec ID/Info : UTF-8 Plain Text
Duration : 1 h 26 min
Bit rate : 70 b/s
Frame rate : 0.262 FPS
Count of elements : 1364
Stream size : 44.5 KiB (0%)
Language : English
Default : No
Forced : No

Menu
00:00:00.000 : en:Chapter 01
00:09:12.135 : en:Chapter 02
00:25:25.734 : en:Chapter 03
00:38:35.982 : en:Chapter 04
00:54:05.537 : en:Chapter 05
01:10:00.700 : en:Chapter 06
01:26:29.022 : en:Chapter 07

资源速度为零或资源敏感被和谐时,推荐使用qBittorrent等下载软件,有条件的推荐115更好的下载软件!

下载地址:


游客,如果您要查看本帖隐藏内容请回复







上一篇:西德尼[简繁粤中字] / Sidney (2022) 4K高清版本下载
下一篇:嘻哈梦想 / On the Come Up (2022) 4K高清版本下载
回复

使用道具 举报

3

主题

1216

帖子

3662

积分

4K家园VIP

Rank: 9Rank: 9Rank: 9

积分
3662
发表于 2022-9-23 19:54:25 | 显示全部楼层
沙发???
回复 支持 反对

使用道具 举报

0

主题

8663

帖子

2万

积分

4K家园VIP

Rank: 9Rank: 9Rank: 9

积分
20189
发表于 2022-9-23 20:45:04 | 显示全部楼层
太好啦&萬分感謝版主的無私發佈分享%
回复 支持 反对

使用道具 举报

0

主题

1240

帖子

3734

积分

4K家园VIP

Rank: 9Rank: 9Rank: 9

积分
3734
发表于 2022-9-24 12:34:07 来自手机 | 显示全部楼层
非常好,顶一下
回复 支持 反对

使用道具 举报

2

主题

1171

帖子

3531

积分

4K家园VIP

Rank: 9Rank: 9Rank: 9

积分
3531
发表于 2022-9-24 17:26:25 | 显示全部楼层
向楼主学习
回复 支持 反对

使用道具 举报

0

主题

1199

帖子

3611

积分

4K家园VIP

Rank: 9Rank: 9Rank: 9

积分
3611
发表于 6 天前 来自手机 | 显示全部楼层
4K家园不错,希望这种资源越多越好
回复 支持 反对

使用道具 举报

2

主题

1361

帖子

3903

积分

4K家园VIP

Rank: 9Rank: 9Rank: 9

积分
3903
发表于 3 天前 | 显示全部楼层
支持楼主,用户楼主,楼主英明呀!!!
回复 支持 反对

使用道具 举报

您需要登录后才可以回帖 登录 | 立即注册

本版积分规则

精彩图文
Archiver|手机版|TAG|Sitemap|新帖|专题|联系我们:邮箱: 4kjia.com@gmail.com   

4k家园   ©2019