[4K电影] 嘻哈梦想 / On the Come Up (2022) 4K高清版本下载

[复制链接]

2327

主题

2476

帖子

1万

积分

超级版主

Rank: 8Rank: 8

积分
17940
 楼主| 发表于 2022-9-23 20:09:36 | 显示全部楼层 |阅读模式
本帖最后由 最爱4K哟 于 2022-9-23 21:26 编辑

QQ图片20220923200342_副本.png

◎标  题 嘻哈梦想
◎片  名 On the Come Up
◎年  代 2022
◎产  地 美国
◎类  别 剧情 / 喜剧 / 音乐
◎语  言 英语
◎上映日期 2022-09-09(多伦多电影节) / 2022-09-23(美国网络)
◎IMDb评分 6.3/10 from 64 users
◎IMDb链接 https://www.imdb.com/title/tt9783730/
◎豆瓣评分 0/10 from 0 users
◎豆瓣链接 https://movie.douban.com/subject/34970178/
◎片  长 115分钟
◎导  演 桑娜·莱瑟 Sanaa Lathan
◎编  剧 卡伊·耶贡 Kay Oyegun / 安吉·托马斯 Angie Thomas
◎演  员 桑娜·莱瑟 Sanaa Lathan
       达明·乔伊·伦道夫 Da'Vine Joy Randolph
       Lil Yachty Lil Yachty
       马索·曼恩 Method Man
       迈克·艾普斯 Mike Epps
       尼贾·布雷尼亚 Nijah Brenea
       库利·卡尔文 Cuyle Carvin
       凯莉·科林斯·林茨 Kelly Collins Lintz
       施奎塔·詹姆斯 Shiquita James
       杰克琳·怀特 Jaclyn White
       蒂姆·洛斯 Tim Ross
       布鲁诺·罗斯 Bruno Rose

◎简  介

  作为一位地下嘻哈传奇人物的女儿,布里在成名前就去世了。作为她的女儿,他有很多工作要做。但这很难,因为她在学校被贴上流氓的标签,在她妈妈失业后,她面临着金融危机。因此,布里把她的愤怒和沮丧倾注到她的第一首歌中,这首歌因为所有错误的原因而在网上传播。布里很快发现自己处于悔恨的中心。。。

Video
ID : 1
Format : HEVC
Format/Info : High Efficiency Video Coding
Format profile : Main 10@L5@High
Codec ID : V_MPEGH/ISO/HEVC
Duration : 1 h 55 min
Bit rate : 20.2 Mb/s
Width : 3 840 pixels
Height : 1 608 pixels
Display aspect ratio : 2.40:1
Frame rate mode : Constant
Frame rate : 23.976 (24000/1001) FPS
Color space : YUV
Chroma subsampling : 4:2:0
Bit depth : 10 bits
Bits/(Pixel*Frame) : 0.136
Stream size : 16.3 GiB (94%)
Language : English
Default : Yes
Forced : No
Color range : Limited
Color primaries : BT.709
Transfer characteristics : BT.709
Matrix coefficients : BT.709

Audio
ID : 2
Format : E-AC-3 JOC
Format/Info : Enhanced AC-3 with Joint Object Coding
Commercial name : Dolby Digital Plus with Dolby Atmos
Codec ID : A_EAC3
Duration : 1 h 55 min
Bit rate mode : Constant
Bit rate : 768 kb/s
Channel(s) : 6 channels
Channel layout : L R C LFE Ls Rs
Sampling rate : 48.0 kHz
Frame rate : 31.250 FPS (1536 SPF)
Compression mode : Lossy
Stream size : 637 MiB (4%)
Language : English
Service kind : Complete Main
Default : Yes
Forced : No
Complexity index : 16
Number of dynamic objects : 15
Bed channel count : 1 channel
Bed channel configuration : LFE

Text
ID : 3
Format : UTF-8
Codec ID : S_TEXT/UTF8
Codec ID/Info : UTF-8 Plain Text
Title : English
Language : English
Default : No
Forced : No

资源速度为零或资源敏感被和谐时,推荐使用qBittorrent等下载软件,有条件的推荐115更好的下载软件!

下载地址:


游客,如果您要查看本帖隐藏内容请回复

游客,如果您要查看本帖隐藏内容请回复

游客,如果您要查看本帖隐藏内容请回复

游客,如果您要查看本帖隐藏内容请回复








上一篇:挖掘 / Dig (2022) 4K高清版本下载
下一篇:暗影特工 / Section Eight (2022) 4K高清版本下载
回复

使用道具 举报

0

主题

1341

帖子

4035

积分

4K家园VIP

Rank: 9Rank: 9Rank: 9

积分
4035
发表于 2022-9-23 20:09:43 | 显示全部楼层
我是个凑数的。。。
回复 支持 反对

使用道具 举报

0

主题

8663

帖子

2万

积分

4K家园VIP

Rank: 9Rank: 9Rank: 9

积分
20189
发表于 2022-9-23 20:45:22 | 显示全部楼层
太好啦&萬分感謝版主的無私發佈分享%
回复 支持 反对

使用道具 举报

57

主题

1553

帖子

4509

积分

4K家园VIP

Rank: 9Rank: 9Rank: 9

积分
4509
发表于 6 天前 | 显示全部楼层
专业抢沙发的!哈哈
回复 支持 反对

使用道具 举报

2

主题

1430

帖子

4142

积分

4K家园VIP

Rank: 9Rank: 9Rank: 9

积分
4142
发表于 4 天前 | 显示全部楼层
OMG!介是啥东东!!!
回复 支持 反对

使用道具 举报

3

主题

1388

帖子

4182

积分

4K家园VIP

Rank: 9Rank: 9Rank: 9

积分
4182
发表于 昨天 15:42 | 显示全部楼层
嘘,低调。
回复 支持 反对

使用道具 举报

您需要登录后才可以回帖 登录 | 立即注册

本版积分规则

精彩图文
Archiver|手机版|TAG|Sitemap|新帖|专题|联系我们:邮箱: 4kjia.com@gmail.com   

4k家园   ©2019