[4K电影] 暗影特工 / Section Eight (2022) 4K高清版本下载

[复制链接]

2327

主题

2476

帖子

1万

积分

超级版主

Rank: 8Rank: 8

积分
17940
 楼主| 发表于 2022-9-23 21:03:08 | 显示全部楼层 |阅读模式
QQ图片20220923200446_副本.png

◎译  名 暗影特工 / Section 8
◎片  名 Section Eight
◎年  代 2022
◎产  地 美国
◎类  别 动作 / 犯罪
◎语  言 英语
◎上映日期 2022-09-23(美国)
◎IMDb评分 0/10 from 0 users
◎IMDb链接 https://www.imdb.com/title/tt14950412/
◎豆瓣评分 0/10 from 0 users
◎豆瓣链接 https://movie.douban.com/subject/35737733/
◎片  长 98分钟
◎导  演 克里斯蒂安·塞斯玛 Christian Sesma (id:1437977)
◎编  剧 查德·洛 Chad Law (id:1033654)
◎演  员 斯科特·阿金斯 Scott Adkins (id:1017912)
       瑞恩·柯万腾 Ryan Kwanten (id:1036305)
       杜夫·龙格尔 Dolph Lundgren (id:1040508)
       米基·洛克 Mickey Rourke (id:1035646)
       德蒙特·莫罗尼 Dermot Mulroney (id:1040534)
       罗伯特·拉萨多 Robert LaSardo (id:1108075)
       保罗·斯隆 Paul Sloan (id:1000788)


◎简  介


  一名退役士兵在为遇害的家人复仇后被捕入狱,而在他出狱后得到了秘密政府部门的招募。

Video
ID : 1
Format : HEVC
Format/Info : High Efficiency Video Coding
Format profile : Main 10@L5@High
Codec ID : V_MPEGH/ISO/HEVC
Duration : 1 h 38 min
Bit rate : 12.0 Mb/s
Width : 3 836 pixels
Height : 1 592 pixels
Display aspect ratio : 2.40:1
Frame rate mode : Constant
Frame rate : 23.976 FPS
Color space : YUV
Chroma subsampling : 4:2:0
Bit depth : 10 bits
Bits/(Pixel*Frame) : 0.082
Stream size : 8.19 GiB (97%)
Language : English
Default : Yes
Forced : No
Color range : Limited
Color primaries : BT.709
Transfer characteristics : BT.709
Matrix coefficients : BT.709

Audio
ID : 2
Format : AC-3
Format/Info : Audio Coding 3
Commercial name : Dolby Digital
Codec ID : A_AC3
Duration : 1 h 38 min
Bit rate mode : Constant
Bit rate : 384 kb/s
Channel(s) : 6 channels
Channel layout : L R C LFE Ls Rs
Sampling rate : 48.0 kHz
Frame rate : 31.250 FPS (1536 SPF)
Compression mode : Lossy
Stream size : 269 MiB (3%)
Language : English
Service kind : Complete Main
Default : Yes
Forced : No

Text #1
ID : 3
Format : UTF-8
Codec ID : S_TEXT/UTF8
Codec ID/Info : UTF-8 Plain Text
Duration : 1 h 35 min
Bit rate : 53 b/s
Frame rate : 0.235 FPS
Count of elements : 1353
Stream size : 37.8 KiB (0%)
Title : SDH
Language : English
Default : No
Forced : No

Text #2
ID : 4
Format : UTF-8
Codec ID : S_TEXT/UTF8
Codec ID/Info : UTF-8 Plain Text
Duration : 1 h 34 min
Bit rate : 50 b/s
Frame rate : 0.218 FPS
Count of elements : 1233
Stream size : 34.9 KiB (0%)
Language : English
Default : No
Forced : No

Text #3
ID : 5
Format : UTF-8
Codec ID : S_TEXT/UTF8
Codec ID/Info : UTF-8 Plain Text
Duration : 1 h 30 min
Bit rate : 49 b/s
Frame rate : 0.214 FPS
Count of elements : 1169
Stream size : 32.9 KiB (0%)
Title : Latin American
Language : Spanish
Default : No
Forced : No

Text #4
ID : 6
Format : UTF-8
Codec ID : S_TEXT/UTF8
Codec ID/Info : UTF-8 Plain Text
Duration : 1 h 30 min
Bit rate : 49 b/s
Frame rate : 0.208 FPS
Count of elements : 1134
Stream size : 32.8 KiB (0%)
Language : French
Default : No
Forced : No

Menu
00:00:00.000 : en:Chapter 01
00:10:03.603 : en:Chapter 02
00:19:59.783 : en:Chapter 03
00:29:43.783 : en:Chapter 04
00:42:57.786 : en:Chapter 05
00:51:15.950 : en:Chapter 06
00:59:34.324 : en:Chapter 07
01:10:11.211 : en:Chapter 08
01:21:33.018 : en:Chapter 09
01:31:49.926 : en:Chapter 10


资源速度为零或资源敏感被和谐时,推荐使用qBittorrent等下载软件,有条件的推荐115更好的下载软件!

下载地址:


游客,如果您要查看本帖隐藏内容请回复






上一篇:嘻哈梦想 / On the Come Up (2022) 4K高清版本下载
下一篇:执法者 / The Enforcer (2022) 4K高清版本下载
回复

使用道具 举报

5

主题

1383

帖子

4175

积分

4K家园VIP

Rank: 9Rank: 9Rank: 9

积分
4175
发表于 2022-9-23 21:03:12 | 显示全部楼层
这个资源我记得是一套的,楼主还有没有
回复 支持 反对

使用道具 举报

2

主题

1348

帖子

3858

积分

4K家园VIP

Rank: 9Rank: 9Rank: 9

积分
3858
发表于 2022-9-23 21:03:12 | 显示全部楼层
报告!别开枪,我就是路过来看看的。。。
回复 支持 反对

使用道具 举报

0

主题

8663

帖子

2万

积分

4K家园VIP

Rank: 9Rank: 9Rank: 9

积分
20189
发表于 2022-9-23 21:41:53 | 显示全部楼层
太好啦&萬分感謝版主的無私發佈分享%
回复 支持 反对

使用道具 举报

0

主题

1

帖子

6

积分

新手上路

Rank: 1

积分
6
发表于 2022-9-23 23:41:24 | 显示全部楼层
怎么才能下载资源呢?
回复 支持 反对

使用道具 举报

0

主题

2

帖子

9

积分

新手上路

Rank: 1

积分
9
发表于 2022-9-24 11:44:21 | 显示全部楼层
感谢楼主无私奉献
回复 支持 反对

使用道具 举报

0

主题

3

帖子

12

积分

新手上路

Rank: 1

积分
12
发表于 2022-9-24 12:51:39 | 显示全部楼层
是非功过说的很对
回复 支持 反对

使用道具 举报

0

主题

1

帖子

10

积分

新手上路

Rank: 1

积分
10
发表于 2022-9-24 16:57:48 | 显示全部楼层
暗影特工 / Section Eight (2022) 4K高清版本下
回复 支持 反对

使用道具 举报

0

主题

1

帖子

6

积分

新手上路

Rank: 1

积分
6
发表于 2022-9-24 20:31:06 | 显示全部楼层
感谢分享高清
回复 支持 反对

使用道具 举报

0

主题

8

帖子

35

积分

新手上路

Rank: 1

积分
35
发表于 2022-9-24 21:43:11 | 显示全部楼层
谢谢楼主 楼主辛苦了
回复 支持 反对

使用道具 举报

您需要登录后才可以回帖 登录 | 立即注册

本版积分规则

精彩图文
Archiver|手机版|TAG|Sitemap|新帖|专题|联系我们:邮箱: 4kjia.com@gmail.com   

4k家园   ©2019