[4K电影] 执法者 / The Enforcer (2022) 4K高清版本下载

[复制链接]

2327

主题

2476

帖子

1万

积分

超级版主

Rank: 8Rank: 8

积分
17940
 楼主| 发表于 2022-9-23 21:19:24 | 显示全部楼层 |阅读模式
QQ图片20220923211322_副本.png

◎译  名 执法者
◎片  名 The Enforcer
◎年  代 2022
◎产  地 美国
◎类  别 惊悚
◎语  言 英语
◎上映日期 2022-09-22(美国)
◎IMDb链接 https://www.imdb.com/title/tt14857730/
◎IMDb评分 6.6/10 from 36 users 更新 : 2022-09-23
◎豆瓣链接 https://movie.douban.com/subject/35599332/
◎豆瓣评分 0/10 from 0 users
◎导  演 李查德·休斯 Richard Hughes
◎编  剧 W·彼得·伊利夫 W. Peter Iliff
◎演  员 安东尼奥·班德拉斯 Antonio Banderas
      凯特·波茨沃斯 Kate Bosworth
      马克·史密斯 Mark Rhino Smith
      莫让·阿里亚 Mojean Aria
      亚伦·科恩 Aaron Cohen
      Alexis Ren Alexis Ren

◎简  介

  一个执法者不得不牺牲一切来拯救一个年轻的女孩,这个女孩是他从他的女老板那里结识的,她参与了网络性交易.

Video
ID : 1
Format : HEVC
Format/Info : High Efficiency Video Coding
Format profile : Main 10@L5@High
Codec ID : V_MPEGH/ISO/HEVC
Duration : 1 h 30 min
Bit rate : 11.7 Mb/s
Width : 3 832 pixels
Height : 1 608 pixels
Display aspect ratio : 2.40:1
Frame rate mode : Constant
Frame rate : 23.976 FPS
Color space : YUV
Chroma subsampling : 4:2:0
Bit depth : 10 bits
Bits/(Pixel*Frame) : 0.079
Stream size : 7.43 GiB (97%)
Language : English
Default : Yes
Forced : No
Color range : Limited
Color primaries : BT.709
Transfer characteristics : BT.709
Matrix coefficients : BT.709

Audio
ID : 2
Format : AC-3
Format/Info : Audio Coding 3
Commercial name : Dolby Digital
Codec ID : A_AC3
Duration : 1 h 30 min
Bit rate mode : Constant
Bit rate : 384 kb/s
Channel(s) : 6 channels
Channel layout : L R C LFE Ls Rs
Sampling rate : 48.0 kHz
Frame rate : 31.250 FPS (1536 SPF)
Compression mode : Lossy
Stream size : 249 MiB (3%)
Language : English
Service kind : Complete Main
Default : Yes
Forced : No

Text #1
ID : 3
Format : UTF-8
Codec ID : S_TEXT/UTF8
Codec ID/Info : UTF-8 Plain Text
Duration : 1 h 24 min
Bit rate : 58 b/s
Frame rate : 0.273 FPS
Count of elements : 1391
Stream size : 36.1 KiB (0%)
Title : SDH
Language : English
Default : No
Forced : No

Text #2
ID : 4
Format : UTF-8
Codec ID : S_TEXT/UTF8
Codec ID/Info : UTF-8 Plain Text
Duration : 1 h 24 min
Bit rate : 50 b/s
Frame rate : 0.220 FPS
Count of elements : 1114
Stream size : 31.0 KiB (0%)
Language : English
Default : No
Forced : No

Menu
00:00:00.000 : en:Chapter 01
00:05:28.578 : en:Chapter 02
00:11:22.015 : en:Chapter 03
00:15:29.429 : en:Chapter 04
00:20:22.263 : en:Chapter 05
00:25:28.862 : en:Chapter 06
00:29:52.375 : en:Chapter 07
00:36:20.263 : en:Chapter 08
00:41:10.387 : en:Chapter 09
00:46:31.583 : en:Chapter 10
00:51:04.272 : en:Chapter 11
00:59:33.365 : en:Chapter 12
01:05:02.819 : en:Chapter 13
01:10:12.128 : en:Chapter 14
01:16:57.242 : en:Chapter 15

资源速度为零或资源敏感被和谐时,推荐使用qBittorrent等下载软件,有条件的推荐115更好的下载软件!

下载地址:


游客,如果您要查看本帖隐藏内容请回复




上一篇:暗影特工 / Section Eight (2022) 4K高清版本下载
下一篇:炼狱机器 / The Infernal Machine (2022) 4K高清版本下载
回复

使用道具 举报

1

主题

1434

帖子

4112

积分

4K家园VIP

Rank: 9Rank: 9Rank: 9

积分
4112
发表于 2022-9-23 21:19:51 | 显示全部楼层
very good
回复 支持 反对

使用道具 举报

0

主题

8663

帖子

2万

积分

4K家园VIP

Rank: 9Rank: 9Rank: 9

积分
20189
发表于 2022-9-23 21:42:15 | 显示全部楼层
太好啦&萬分感謝版主的無私發佈分享%
回复 支持 反对

使用道具 举报

0

主题

10

帖子

2474

积分

注册会员

Rank: 2

积分
2474
发表于 2022-9-24 18:41:09 | 显示全部楼层
谢谢楼主分享!
回复 支持 反对

使用道具 举报

0

主题

2

帖子

13

积分

新手上路

Rank: 1

积分
13
发表于 2022-9-25 13:20:10 | 显示全部楼层
谢谢版主
回复

使用道具 举报

2

主题

1430

帖子

4308

积分

4K家园VIP

Rank: 9Rank: 9Rank: 9

积分
4308
发表于 6 天前 | 显示全部楼层
支持楼主,用户楼主,楼主英明呀!!!
回复 支持 反对

使用道具 举报

40

主题

1542

帖子

4424

积分

4K家园VIP

Rank: 9Rank: 9Rank: 9

积分
4424
发表于 4 天前 | 显示全部楼层
没看懂
回复 支持 反对

使用道具 举报

2

主题

1378

帖子

3924

积分

4K家园VIP

Rank: 9Rank: 9Rank: 9

积分
3924
发表于 3 天前 来自手机 | 显示全部楼层
额.....这个可以有
回复 支持 反对

使用道具 举报

4

主题

1670

帖子

4610

积分

4K家园VIP

Rank: 9Rank: 9Rank: 9

积分
4610
发表于 昨天 01:15 | 显示全部楼层
路过
回复 支持 反对

使用道具 举报

您需要登录后才可以回帖 登录 | 立即注册

本版积分规则

精彩图文
Archiver|手机版|TAG|Sitemap|新帖|专题|联系我们:邮箱: 4kjia.com@gmail.com   

4k家园   ©2019