[4K电影] 炼狱机器 / The Infernal Machine (2022) 4K高清版本下载

[复制链接]

2327

主题

2476

帖子

1万

积分

超级版主

Rank: 8Rank: 8

积分
17940
 楼主| 发表于 2022-9-23 21:24:03 | 显示全部楼层 |阅读模式
QQ图片20220923211425_副本.png

◎译  名 炼狱机器
◎片  名 The Infernal Machine
◎年  代 2022
◎产  地 美国 / 英国
◎类  别 剧情 / 悬疑 / 惊悚 / 恐怖
◎语  言 英语
◎上映日期 2022-09-23(美国)
◎IMDb评分 5.9/10 from 10 users 更新 : 2022-09-23
◎IMDb链接 https://www.imdb.com/title/tt15275256/
◎豆瓣评分 0/10 from 0 users
◎豆瓣链接 https://movie.douban.com/subject/36006701/
◎导  演 安德鲁·亨特 Andrew Hunt
◎编  剧 安德鲁·亨特 Andrew Hunt
◎演  员 爱丽丝·伊芙 Alice Eve
       盖·皮尔斯 Guy Pearce
       亚历克斯·帕蒂弗 Alex Pettyfer
       艾瑞斯·卡亚特 Iris Cayatte
       安娜洛佩斯 Ana Lopes
       乔治娅·古德曼 Georgia Goodman
       艾薇儿·拉维尼 Avril Lavigne
       凯特·卡普肖 Kate Capshaw


◎简  介

  隐居且有争议的作家布鲁斯·科伯恩(BruceCogburn)被一位痴迷的粉丝从隐藏中拉了出来,迫使这位小说家面对他认为可以逃离的过去,并解释他畅销书几十年前引发的事件。科伯恩寻找谁是他所遭遇的操纵和精神折磨的幕后黑手,导致了一场充满恐惧和危险的情感过山车之旅,在那里,事情并不总是像表面上那样清楚,过去的行为可能会产生可怕的后果。

Video
ID : 1
Format : HEVC
Format/Info : High Efficiency Video Coding
Format profile : Main 10@L5@High
HDR format : SMPTE ST 2086, HDR10 compatible
Codec ID : V_MPEGH/ISO/HEVC
Duration : 1 h 51 min
Bit rate : 14.3 Mb/s
Width : 3 840 pixels
Height : 1 606 pixels
Display aspect ratio : 2.40:1
Frame rate mode : Constant
Frame rate : 23.976 FPS
Color space : YUV
Chroma subsampling : 4:2:0 (Type 2)
Bit depth : 10 bits
Bits/(Pixel*Frame) : 0.097
Stream size : 11.1 GiB (97%)
Language : English
Default : Yes
Forced : No
Color range : Limited
Color primaries : BT.2020
Transfer characteristics : PQ
Matrix coefficients : BT.2020 non-constant
Mastering display color primaries : Display P3
Mastering display luminance : min: 0.0050 cd/m2, max: 1000 cd/m2
Maximum Content Light Level : 2106 cd/m2
Maximum Frame-Average Light Level : 635 cd/m2

Audio
ID : 2
Format : AC-3
Format/Info : Audio Coding 3
Commercial name : Dolby Digital
Codec ID : A_AC3
Duration : 1 h 51 min
Bit rate mode : Constant
Bit rate : 384 kb/s
Channel(s) : 6 channels
Channel layout : L R C LFE Ls Rs
Sampling rate : 48.0 kHz
Frame rate : 31.250 FPS (1536 SPF)
Compression mode : Lossy
Stream size : 305 MiB (3%)
Language : English
Service kind : Complete Main
Default : Yes
Forced : No

Text #1
ID : 3
Format : UTF-8
Codec ID : S_TEXT/UTF8
Codec ID/Info : UTF-8 Plain Text
Duration : 1 h 50 min
Bit rate : 58 b/s
Frame rate : 0.215 FPS
Count of elements : 1424
Stream size : 47.1 KiB (0%)
Title : SDH
Language : English
Default : No
Forced : No

Text #2
ID : 4
Format : UTF-8
Codec ID : S_TEXT/UTF8
Codec ID/Info : UTF-8 Plain Text
Duration : 1 h 50 min
Bit rate : 49 b/s
Frame rate : 0.176 FPS
Count of elements : 1169
Stream size : 39.9 KiB (0%)
Language : English
Default : No
Forced : No

Menu
00:00:00.000 : en:Chapter 01
00:07:51.137 : en:Chapter 02
00:16:40.125 : en:Chapter 03
00:22:55.750 : en:Chapter 04
00:31:55.081 : en:Chapter 05
00:38:27.182 : en:Chapter 06
00:47:45.365 : en:Chapter 07
00:56:22.632 : en:Chapter 08
01:05:37.854 : en:Chapter 09
01:11:03.263 : en:Chapter 10
01:18:44.099 : en:Chapter 11
01:23:27.215 : en:Chapter 12
01:29:29.828 : en:Chapter 13
01:39:24.756 : en:Chapter 14
01:46:17.043 : en:Chapter 15

资源速度为零或资源敏感被和谐时,推荐使用qBittorrent等下载软件,有条件的推荐115更好的下载软件!

下载地址:


游客,如果您要查看本帖隐藏内容请回复

游客,如果您要查看本帖隐藏内容请回复

游客,如果您要查看本帖隐藏内容请回复




上一篇:执法者 / The Enforcer (2022) 4K高清版本下载
下一篇:约克女巫会 / York Witches' Society (2022) 4K高清版本下载
回复

使用道具 举报

2

主题

1385

帖子

4021

积分

4K家园VIP

Rank: 9Rank: 9Rank: 9

积分
4021
发表于 2022-9-23 21:24:07 | 显示全部楼层
4K版的应该更清晰吧
回复 支持 反对

使用道具 举报

0

主题

8663

帖子

2万

积分

4K家园VIP

Rank: 9Rank: 9Rank: 9

积分
20189
发表于 2022-9-23 21:42:30 | 显示全部楼层
太好啦&萬分感謝版主的無私發佈分享%
回复 支持 反对

使用道具 举报

4

主题

1736

帖子

4828

积分

4K家园VIP

Rank: 9Rank: 9Rank: 9

积分
4828
发表于 2022-9-24 18:56:42 | 显示全部楼层
支持下楼主,顶一个
回复 支持 反对

使用道具 举报

50

主题

1471

帖子

4223

积分

4K家园VIP

Rank: 9Rank: 9Rank: 9

积分
4223
发表于 7 天前 | 显示全部楼层
向楼主学习
回复 支持 反对

使用道具 举报

0

主题

55

帖子

780

积分

新手上路

Rank: 1

积分
780
发表于 昨天 14:10 | 显示全部楼层
看禁闻http://v.ht/tttd 点击访问
回复

使用道具 举报

您需要登录后才可以回帖 登录 | 立即注册

本版积分规则

精彩图文
Archiver|手机版|TAG|Sitemap|新帖|专题|联系我们:邮箱: 4kjia.com@gmail.com   

4k家园   ©2019