[4K电影] 之后4 / After Ever Happy (2022) 4K高清版本下载

[复制链接]

2333

主题

2482

帖子

1万

积分

超级版主

Rank: 8Rank: 8

积分
17979
 楼主| 发表于 2022-9-23 22:13:02 | 显示全部楼层 |阅读模式
QQ图片20220923215616_副本.png

◎译  名 之后4 / After 4 / После. Глава 4
◎片  名 After Ever Happy
◎年  代 2022
◎产  地 美国
◎类  别 剧情 / 爱情
◎语  言 英语
◎上映日期 2022-09-07(美国)
◎IMDb评分 4.3/10 from 1858 users
◎IMDb链接 https://www.imdb.com/title/tt13070038/
◎豆瓣评分 0/10 from 0 users
◎豆瓣链接 https://movie.douban.com/subject/35221423/
◎片  长 120分钟
◎导  演 卡斯蒂利·兰登 Castille Landon
◎编  剧 莎伦·索博伊尔 Sharon Soboil / 安娜·托德 Anna Todd
◎演  员 赫洛·费因斯-提芬 Hero Fiennes Tiffin
       约瑟芬·兰福德 Josephine Langford
       路易丝·隆巴德 Louise Lombard
       基亚娜·马德拉 Kiana Madeira
       卡特·詹金斯 Carter Jenkins (
       罗伯·艾斯特斯 Rob Estes
       钱斯·佩尔多莫 Chance Perdomo
       杰克·班戴拉 Jack Bandeira
       阿塔纳斯·斯雷布雷夫 Atanas Srebrev
       沃利扎·比尼夫 Velizar Binev

◎简  介

  [之后4]讲述一个过往的秘密动摇了Hardin坚不可摧的外表,随后Tessa遭遇了一场悲剧,使他们的关系濒临崩溃。
Video
ID : 1
Format : HEVC
Format/Info : High Efficiency Video Coding
Format profile : Main 10@L5@High
Codec ID : V_MPEGH/ISO/HEVC
Duration : 1 h 35 min
Bit rate : 11.9 Mb/s
Width : 3 832 pixels
Height : 1 596 pixels
Display aspect ratio : 2.40:1
Frame rate mode : Constant
Frame rate : 23.976 FPS
Color space : YUV
Chroma subsampling : 4:2:0
Bit depth : 10 bits
Bits/(Pixel*Frame) : 0.081
Stream size : 7.92 GiB (97%)
Default : No
Forced : No
Color range : Limited
Color primaries : BT.709
Transfer characteristics : BT.709
Matrix coefficients : BT.709

Audio
ID : 2
Format : AC-3
Format/Info : Audio Coding 3
Commercial name : Dolby Digital
Codec ID : A_AC3
Duration : 1 h 35 min
Bit rate mode : Constant
Bit rate : 384 kb/s
Channel(s) : 6 channels
Channel layout : L R C LFE Ls Rs
Sampling rate : 48.0 kHz
Frame rate : 31.250 FPS (1536 SPF)
Compression mode : Lossy
Stream size : 262 MiB (3%)
Language : English
Service kind : Complete Main
Default : No
Forced : No

Text
ID : 3
Format : UTF-8
Codec ID : S_TEXT/UTF8
Codec ID/Info : UTF-8 Plain Text
Duration : 1 h 32 min
Bit rate : 62 b/s
Frame rate : 0.253 FPS
Count of elements : 1411
Stream size : 42.7 KiB (0%)
Language : English
Default : No
Forced : No

资源速度为零或资源敏感被和谐时,推荐使用qBittorrent等下载软件,有条件的推荐115更好的下载软件!

下载地址:

游客,如果您要查看本帖隐藏内容请回复



上一篇:约克女巫会 / York Witches' Society (2022) 4K高清版本下载
下一篇:子弹列车 / Bullet Train (2022) 4K高清版本下载
回复

使用道具 举报

2

主题

1378

帖子

3924

积分

4K家园VIP

Rank: 9Rank: 9Rank: 9

积分
3924
发表于 2022-9-23 22:13:06 来自手机 | 显示全部楼层
非常好,顶一下
回复 支持 反对

使用道具 举报

1

主题

1404

帖子

4066

积分

4K家园VIP

Rank: 9Rank: 9Rank: 9

积分
4066
发表于 2022-9-24 04:39:21 | 显示全部楼层
多发些资源啊
回复 支持 反对

使用道具 举报

0

主题

8668

帖子

2万

积分

4K家园VIP

Rank: 9Rank: 9Rank: 9

积分
20210
发表于 2022-9-24 08:02:57 | 显示全部楼层
太好啦&萬分感謝版主的無私發佈分享%
回复 支持 反对

使用道具 举报

0

主题

477

帖子

2907

积分

注册会员

Rank: 2

积分
2907
发表于 2022-9-24 10:53:31 | 显示全部楼层
萬分感謝版主
回复 支持 反对

使用道具 举报

40

主题

1520

帖子

4372

积分

4K家园VIP

Rank: 9Rank: 9Rank: 9

积分
4372
发表于 2022-9-24 11:59:52 | 显示全部楼层
鼎力支持!!
回复 支持 反对

使用道具 举报

0

主题

8

帖子

42

积分

新手上路

Rank: 1

积分
42
发表于 2022-9-24 22:21:42 | 显示全部楼层
FU,评论选择性通过,上个帖子删了,这个帖子再删?
回复 支持 反对

使用道具 举报

0

主题

8

帖子

42

积分

新手上路

Rank: 1

积分
42
发表于 2022-9-24 22:22:25 | 显示全部楼层
根本都没有资源的,欺骗。举报
回复 支持 反对

使用道具 举报

50

主题

1554

帖子

4498

积分

4K家园VIP

Rank: 9Rank: 9Rank: 9

积分
4498
发表于 2022-9-25 02:16:23 | 显示全部楼层
佩服佩服!
回复 支持 反对

使用道具 举报

0

主题

8

帖子

21

积分

新手上路

Rank: 1

积分
21
发表于 2022-9-27 09:45:34 | 显示全部楼层
太好了,赶紧看看具体内容
回复 支持 反对

使用道具 举报

您需要登录后才可以回帖 登录 | 立即注册

本版积分规则

精彩图文
Archiver|手机版|TAG|Sitemap|新帖|专题|联系我们:邮箱: 4kjia.com@gmail.com   

4k家园   ©2019