[4K UHD 蓝光原盘] 雷神4:爱与雷霆[DIY简繁粤](2022)4K蓝光REMUX版本下载

  [复制链接]

主题

帖子

0

积分

超级版主

Rank: 8Rank: 8

积分
0
 楼主| 发表于 2022-9-24 22:47:29 | 显示全部楼层 |阅读模式
本帖最后由 没完没了 于 2022-9-24 22:55 编辑

QQ图片20220924225325_副本.png

◎译  名 雷神4:爱与雷霆 / 雷神4 / 雷神奇侠4:爱与雷霆(港) / 雷神索尔:爱与雷霆(台)
◎片  名 Thor: Love and Thunder
◎年  代 2022
◎产  地 澳大利亚 / 美国
◎类  别 喜剧 / 动作 / 爱情 / 科幻 / 奇幻 / 冒险
◎语  言 英语
◎上映日期 2022-07-06(中国香港) / 2022-07-08(美国) / 2022-09-08(美国网络)
◎IMDb评分 6.5/10 from 241758 users 更新 : 2022-09-19
◎IMDb链接 https://www.imdb.com/title/tt10648342
◎豆瓣评分 5.4/10 from 79499 users 更新 : 2022-09-21
◎豆瓣链接 https://movie.douban.com/subject/34477861/
◎片  长 119分钟
◎导  演 塔伊加·维迪提 Taika Waititi
◎编  剧 塔伊加·维迪提 Taika Waititi / 詹尼弗·凯廷·罗宾逊 Jennifer Kaytin Robinson / 斯坦·李 Stan Lee / 杰森·亚伦 Jason Aaron
◎主  演 克里斯·海姆斯沃斯 Chris Hemsworth
                   娜塔莉·波特曼 Natalie Portman
                   克里斯蒂安·贝尔 Christian Bale
                   泰莎·汤普森 Tessa Thompson
                   塔伊加·维迪提 Taika Waititi
                   罗素·克劳 Russell Crowe                                      
                   杰米·亚历山大 Jaimie Alexander
                   克里斯·帕拉特 Chris Pratt
                   戴夫·巴蒂斯塔 Dave Bautista
                   凯伦·吉兰 Karen Gillan
                   庞·克莱门捷夫 Pom Klementieff
                   肖恩·古恩 Sean Gunn
                   范·迪塞尔 Vin Diesel
                   布莱德利·库珀 Bradley Cooper
                   卡尔利·里斯 Carly Rees
                   本·法尔科内 Ben Falcone
                   史蒂芬·库里 Stephen Curry
                   鲍比·霍兰德·汉顿 Bobby Holland Hanton
                   戴利·皮尔森 Daley Pearson
                   西蒙·拉塞尔·比尔 Simon Russell Beale
                   乔尼·布鲁 Jonny Brugh
                   布鲁克·斯塔奇威尔 Brooke Satchwell
                   埃尔莎·帕塔奇 Elsa Pataky
                   埃莉扎·德苏扎 Eliza D'Souza
                   卡恩·古尔杜尔 Kaan Guldur
                   普里西拉·道伊西 Priscilla Doueihy
                   斯蒂芬·亨特 Stephen Hunter
                   印第安娜·伊万斯 Indiana Evans
                   艾娃·卡约菲丽斯 Ava Caryofyllis
                   本·辛克莱尔 Ben Sinclair
                   博特·高登斯汀 Brett Goldstein


◎简  介


         影片故事发在在《复仇者联盟4:终局之战》事件之后,雷神索尔(克里斯·海姆斯沃斯 饰)踏上了一段他从未经历过的旅程:找回自我。但索尔的退休计划却被企图消灭众神的屠神者格尔(克里斯蒂安·贝尔 饰)打断,他只好与女武神瓦尔基里(泰莎·汤普森 饰)和寇格(塔伊加·维迪提 饰)再次联手,其间更发现自己八年未见的前女友简·福斯特(娜塔莉·波特曼 饰)获得了雷神之力、挥舞着多年前在自己面前毁灭的雷神之锤,令索尔惊讶不已。他们一起踏上了星际冒险,以揭开格尔的复仇之谜,并在为时已晚之前阻止他。

Video
ID                             : 1
ID in the original source medi : 4113 (0x1011)
Format                         : HEVC
Format/Info                    : High Efficiency Video Coding
Format profile                 : Main 10@L5.1@High
HDR format                     : SMPTE ST 2086, HDR10 compatible
Codec ID                       : V_MPEGH/ISO/HEVC
Duration                       : 1 h 58 min
Bit rate                       : 51.1 Mb/s
Width                          : 3 840 pixels
Height                         : 2 160 pixels
Display aspect ratio           : 16:9
Frame rate mode                : Constant
Frame rate                     : 23.976 (24000/1001) FPS
Color space                    : YUV
Chroma subsampling             : 4:2:0 (Type 2)
Bit depth                      : 10 bits
Bits/(Pixel*Frame)             : 0.257
Stream size                    : 42.4 GiB (80%)
Language                       : English
Default                        : No
Forced                         : No
Color range                    : Limited
Color primaries                : BT.2020
Transfer characteristics       : PQ
Matrix coefficients            : BT.2020 non-constant
Mastering display color primar : BT.2020
Mastering display luminance    : min: 0.0050 cd/m2, max: 1000 cd/m2
Original source medium         : Blu-ray

Audio #1
ID                             : 2
ID in the original source medi : 4352 (0x1100)
Format                         : MLP FBA 16-ch
Format/Info                    : Meridian Lossless Packing FBA with 16-channel presentation
Commercial name                : Dolby TrueHD with Dolby Atmos
Codec ID                       : A_TRUEHD
Duration                       : 1 h 58 min
Bit rate mode                  : Variable
Bit rate                       : 4 691 kb/s
Maximum bit rate               : 8 409 kb/s
Channel(s)                     : 8 channels
Channel layout                 : L R C LFE Ls Rs Lb Rb
Sampling rate                  : 48.0 kHz
Frame rate                     : 1 200.000 FPS (40 SPF)
Bit depth                      : 24 bits
Compression mode               : Lossless
Stream size                    : 3.89 GiB (7%)
Title                          : TrueHD 7.1 Atmos
Language                       : English
Default                        : Yes
Forced                         : No
Original source medium         : Blu-ray
Number of dynamic objects      : 13
Bed channel count              : 1 channel
Bed channel configuration      : LFE

Audio #2
ID                             : 3
Format                         : DTS XLL
Format/Info                    : Digital Theater Systems
Commercial name                : DTS-HD Master Audio
Codec ID                       : A_DTS
Duration                       : 1 h 58 min
Bit rate mode                  : Variable
Bit rate                       : 3 921 kb/s
Channel(s)                     : 8 channels
Channel layout                 : C L R LFE Lb Rb Lss Rss
Sampling rate                  : 48.0 kHz
Frame rate                     : 93.750 FPS (512 SPF)
Bit depth                      : 24 bits
Compression mode               : Lossless
Stream size                    : 3.25 GiB (6%)
Title                          : DTS-HD MA 7.1
Language                       : English
Default                        : No
Forced                         : No

Audio #3
ID                             : 4
ID in the original source medi : 4352 (0x1100)
Format                         : AC-3
Format/Info                    : Audio Coding 3
Commercial name                : Dolby Digital
Codec ID                       : A_AC3
Duration                       : 1 h 58 min
Bit rate mode                  : Constant
Bit rate                       : 640 kb/s
Channel(s)                     : 6 channels
Channel layout                 : L R C LFE Ls Rs
Sampling rate                  : 48.0 kHz
Frame rate                     : 31.250 FPS (1536 SPF)
Compression mode               : Lossy
Stream size                    : 544 MiB (1%)
Title                          : DD 5.1
Language                       : English
Service kind                   : Complete Main
Default                        : No
Forced                         : No
Original source medium         : Blu-ray

Audio #4
ID                             : 5
ID in the original source medi : 4353 (0x1101)
Format                         : AC-3
Format/Info                    : Audio Coding 3
Commercial name                : Dolby Digital
Codec ID                       : A_AC3
Duration                       : 1 h 58 min
Bit rate mode                  : Constant
Bit rate                       : 320 kb/s
Channel(s)                     : 2 channels
Channel layout                 : L R
Sampling rate                  : 48.0 kHz
Frame rate                     : 31.250 FPS (1536 SPF)
Compression mode               : Lossy
Stream size                    : 272 MiB (0%)
Title                          : DD 2.0
Language                       : English
Service kind                   : Complete Main
Default                        : No
Forced                         : No
Original source medium         : Blu-ray

Audio #5
ID                             : 6
ID in the original source medi : 4354 (0x1102)
Format                         : AC-3
Format/Info                    : Audio Coding 3
Commercial name                : Dolby Digital
Codec ID                       : A_AC3
Duration                       : 1 h 58 min
Bit rate mode                  : Constant
Bit rate                       : 640 kb/s
Channel(s)                     : 6 channels
Channel layout                 : L R C LFE Ls Rs
Sampling rate                  : 48.0 kHz
Frame rate                     : 31.250 FPS (1536 SPF)
Compression mode               : Lossy
Stream size                    : 544 MiB (1%)
Title                          : DD 5.1
Language                       : French
Service kind                   : Complete Main
Default                        : No
Forced                         : No
Original source medium         : Blu-ray

Audio #6
ID                             : 7
Format                         : E-AC-3
Format/Info                    : Enhanced AC-3
Commercial name                : Dolby Digital Plus
Format profile                 : Blu-ray Disc
Codec ID                       : A_EAC3
Duration                       : 1 h 58 min
Bit rate mode                  : Constant
Bit rate                       : 1 024 kb/s
Channel(s)                     : 8 channels
Channel layout                 : L R C LFE Ls Rs Lb Rb
Sampling rate                  : 48.0 kHz
Frame rate                     : 31.250 FPS (1536 SPF)
Compression mode               : Lossy
Stream size                    : 870 MiB (2%)
Title                          : DDP 7.1
Language                       : Spanish
Service kind                   : Complete Main
Default                        : No
Forced                         : No

Audio #7
ID                             : 8
Format                         : E-AC-3
Format/Info                    : Enhanced AC-3
Commercial name                : Dolby Digital Plus
Format profile                 : Blu-ray Disc
Codec ID                       : A_EAC3
Duration                       : 1 h 58 min
Bit rate mode                  : Constant
Bit rate                       : 1 024 kb/s
Channel(s)                     : 8 channels
Channel layout                 : L R C LFE Ls Rs Lb Rb
Sampling rate                  : 48.0 kHz
Frame rate                     : 31.250 FPS (1536 SPF)
Compression mode               : Lossy
Stream size                    : 870 MiB (2%)
Title                          : DDP 7.1
Language                       : Japanese
Service kind                   : Complete Main
Default                        : No
Forced                         : No

Text #1
ID                             : 9
Format                         : UTF-8
Codec ID                       : S_TEXT/UTF8
Codec ID/Info                  : UTF-8 Plain Text
Duration                       : 1 h 57 min
Bit rate                       : 56 b/s
Frame rate                     : 0.252 FPS
Count of elements              : 1782
Stream size                    : 48.8 KiB (0%)
Language                       : English
Default                        : Yes
Forced                         : No

Text #2
ID                             : 10
Format                         : UTF-8
Codec ID                       : S_TEXT/UTF8
Codec ID/Info                  : UTF-8 Plain Text
Duration                       : 1 h 58 min
Bit rate                       : 69 b/s
Frame rate                     : 0.319 FPS
Count of elements              : 2262
Stream size                    : 60.2 KiB (0%)
Title                          : SDH
Language                       : English
Default                        : No
Forced                         : No

Text #3
ID                             : 11
ID in the original source medi : 4768 (0x12A0)
Format                         : PGS
Muxing mode                    : zlib
Codec ID                       : S_HDMV/PGS
Codec ID/Info                  : Picture based subtitle format used on BDs/HD-DVDs
Duration                       : 1 h 58 min
Bit rate                       : 52.5 kb/s
Frame rate                     : 0.641 FPS
Count of elements              : 4548
Stream size                    : 44.4 MiB (0%)
Language                       : English
Default                        : No
Forced                         : No
Original source medium         : Blu-ray

Text #4
ID                             : 12
ID in the original source medi : 4769 (0x12A1)
Format                         : PGS
Muxing mode                    : zlib
Codec ID                       : S_HDMV/PGS
Codec ID/Info                  : Picture based subtitle format used on BDs/HD-DVDs
Duration                       : 1 h 57 min
Bit rate                       : 38.7 kb/s
Frame rate                     : 0.462 FPS
Count of elements              : 3270
Stream size                    : 32.6 MiB (0%)
Language                       : French
Default                        : No
Forced                         : No
Original source medium         : Blu-ray

Text #5
ID                             : 13
ID in the original source medi : 4770 (0x12A2)
Format                         : PGS
Muxing mode                    : zlib
Codec ID                       : S_HDMV/PGS
Codec ID/Info                  : Picture based subtitle format used on BDs/HD-DVDs
Duration                       : 1 h 57 min
Bit rate                       : 38.1 kb/s
Frame rate                     : 0.456 FPS
Count of elements              : 3224
Stream size                    : 32.1 MiB (0%)
Language                       : Spanish
Default                        : No
Forced                         : No
Original source medium         : Blu-ray

Text #6
ID                             : 14
ID in the original source medi : 4771 (0x12A3)
Format                         : PGS
Muxing mode                    : zlib
Codec ID                       : S_HDMV/PGS
Codec ID/Info                  : Picture based subtitle format used on BDs/HD-DVDs
Duration                       : 1 h 57 min
Bit rate                       : 23.9 kb/s
Frame rate                     : 0.439 FPS
Count of elements              : 3106
Stream size                    : 20.1 MiB (0%)
Language                       : Japanese
Default                        : No
Forced                         : No
Original source medium         : Blu-ray

Text #7
ID                             : 15
ID in the original source medi : 4772 (0x12A4)
Format                         : PGS
Muxing mode                    : zlib
Codec ID                       : S_HDMV/PGS
Codec ID/Info                  : Picture based subtitle format used on BDs/HD-DVDs
Duration                       : 1 h 43 min
Bit rate                       : 685 b/s
Frame rate                     : 0.010 FPS
Count of elements              : 64
Stream size                    : 522 KiB (0%)
Title                          : FORCED
Language                       : French
Default                        : No
Forced                         : No
Original source medium         : Blu-ray

Text #8
ID                             : 16
ID in the original source medi : 4773 (0x12A5)
Format                         : PGS
Muxing mode                    : zlib
Codec ID                       : S_HDMV/PGS
Codec ID/Info                  : Picture based subtitle format used on BDs/HD-DVDs
Duration                       : 1 h 43 min
Bit rate                       : 310 b/s
Frame rate                     : 0.004 FPS
Count of elements              : 28
Stream size                    : 237 KiB (0%)
Title                          : FORCED
Language                       : Spanish
Default                        : No
Forced                         : No
Original source medium         : Blu-ray

Text #9
ID                             : 17
ID in the original source medi : 4774 (0x12A6)
Format                         : PGS
Muxing mode                    : zlib
Codec ID                       : S_HDMV/PGS
Codec ID/Info                  : Picture based subtitle format used on BDs/HD-DVDs
Duration                       : 1 h 43 min
Bit rate                       : 292 b/s
Frame rate                     : 0.004 FPS
Count of elements              : 28
Stream size                    : 223 KiB (0%)
Title                          : FORCED
Language                       : Japanese
Default                        : No
Forced                         : No
Original source medium         : Blu-ray

Text #10
ID                             : 18
Format                         : UTF-8
Codec ID                       : S_TEXT/UTF8
Codec ID/Info                  : UTF-8 Plain Text
Duration                       : 1 h 57 min
Bit rate                       : 56 b/s
Frame rate                     : 0.244 FPS
Count of elements              : 1725
Stream size                    : 48.9 KiB (0%)
Title                          : 中文(简体)
Language                       : Chinese
Default                        : Yes
Forced                         : No

Text #11
ID                             : 19
Format                         : UTF-8
Codec ID                       : S_TEXT/UTF8
Codec ID/Info                  : UTF-8 Plain Text
Duration                       : 1 h 57 min
Bit rate                       : 44 b/s
Frame rate                     : 0.230 FPS
Count of elements              : 1628
Stream size                    : 38.5 KiB (0%)
Title                          : 中文(繁体)
Language                       : Chinese
Default                        : Yes
Forced                         : No

Text #12
ID                             : 20
Format                         : UTF-8
Codec ID                       : S_TEXT/UTF8
Codec ID/Info                  : UTF-8 Plain Text
Duration                       : 1 h 57 min
Bit rate                       : 44 b/s
Frame rate                     : 0.229 FPS
Count of elements              : 1617
Stream size                    : 38.5 KiB (0%)
Title                          : 中文(粤语)
Language                       : Chinese
Default                        : Yes
Forced                         : No

新种推荐使用qBittorrent、uTorrent等下载软件,有条件的推荐115更好的下载软件!

[4Kjia独享DIY资源]雷神4:爱与雷霆[DIY简繁粤](52.65GB)
Thor.Love.and.Thunder.2022.2160p.BluRay.REMUX.HEVC.DTS-HD.MA.TrueHD.7.1.Atmos-ALAN-【2160P蓝光REMUX】
游客,如果您要查看本帖隐藏内容请回复



相关其他4K版本链接
雷神4:爱与雷霆(2022)4K蓝光[原盘+REMUX]版本下载
雷神4:爱与雷霆 [DIY简繁粤&英文] (2022) 4K高清版本下载


QQ4K海报.gif






190610g2cidrwpp4i5kzzs.png

上一篇:金属之声 / Sound of Metal (2019) 4K蓝光[原盘+REMUX]版本下载
下一篇:未来罪行 / Crimes of the Future (2022) 4K蓝光[原盘+REMUX]版本下载
回复

使用道具 举报

4

主题

1419

帖子

4268

积分

4K家园VIP

Rank: 9Rank: 9Rank: 9

积分
4268
发表于 2022-9-24 22:47:39 | 显示全部楼层
4K家园不错,希望这种资源越多越好
回复 支持 反对

使用道具 举报

主题

帖子

33

积分

新手上路

Rank: 1

积分
33
发表于 2022-9-24 23:49:07 | 显示全部楼层
感谢分享
回复

使用道具 举报

主题

帖子

9

积分

新手上路

Rank: 1

积分
9
发表于 2022-9-25 00:12:12 | 显示全部楼层
多少积分?
回复

使用道具 举报

主题

帖子

0

积分

4K家园VIP

Rank: 9Rank: 9Rank: 9

积分
0
发表于 2022-9-25 07:23:04 | 显示全部楼层
雷神★爱与雷霆[DIY]4k
回复 支持 反对

使用道具 举报

主题

帖子

33

积分

新手上路

Rank: 1

积分
33
发表于 2022-9-25 11:22:03 来自手机 | 显示全部楼层
现在电视投影都升级了,没有好的片源真要命,感谢作者,感谢4k家园
回复 支持 反对

使用道具 举报

主题

帖子

0

积分

新手上路

Rank: 1

积分
0
发表于 2022-9-25 13:49:12 | 显示全部楼层
感谢分享
回复

使用道具 举报

主题

帖子

87

积分

4K家园VIP

Rank: 9Rank: 9Rank: 9

积分
87
发表于 2022-9-25 15:37:50 | 显示全部楼层
种子太少了。
回复 支持 反对

使用道具 举报

主题

帖子

23

积分

新手上路

Rank: 1

积分
23
发表于 2022-9-25 19:23:03 | 显示全部楼层
666666666666666
回复 支持 反对

使用道具 举报

主题

帖子

12

积分

新手上路

Rank: 1

积分
12
发表于 2022-9-25 22:05:04 | 显示全部楼层
感谢分享
回复

使用道具 举报

您需要登录后才可以回帖 登录 | 立即注册

本版积分规则

精彩图文
Archiver|手机版|TAG|Sitemap|新帖|专题|联系我们:邮箱: 4kjia.com@gmail.com   

4k家园   ©2019