2019美国迈阿密泳装秀-黑胶带艺术 [2160P/MP4/1.34GB]

  [复制链接]

1167

主题

1310

帖子

8612

积分

超级版主

Rank: 8Rank: 8

积分
8612
 楼主| 发表于 2019-7-26 13:30:14 | 显示全部楼层 |阅读模式
本帖最后由 叽里呱啦 于 2019-8-6 14:24 编辑

2019美国迈阿密泳装秀-黑胶带艺术httpwww.4kjia.com.mkv_20190726_132135.446.jpg 2019美国迈阿密泳装秀-黑胶带艺术httpwww.4kjia.com.mkv_20190726_132203.684.jpg 2019美国迈阿密泳装秀-黑胶带艺术httpwww.4kjia.com.mkv.jpg

General
Unique ID                      : 72921528217858370078317760407117918470 (0x36DC2CEC291EFAA595453ACD23AA7106)
Complete name                  : 2019美国迈阿密泳装秀-黑胶带艺术httpwww.4kjia.com.mkv
Format                         : Matroska
Format version                 : Version 4
File size                      : 1.35 GiB
Duration                       : 13 min 11 s
Overall bit rate               : 14.7 Mb/s
Movie name                     : 黑胶带的艺术.2019【乐之音出品.必属精品】
Encoded date                   : UTC 2019-07-21 15:10:23
Writing application            : mkvmerge v35.0.0 ('All The Love In The World') 64-bit
Writing library                : libebml v1.3.9 + libmatroska v1.5.2 / Lavf58.20.100
Cover                          : Yes
Attachments                    : cover.png

Video
ID                             : 2
Format                         : HEVC
Format/Info                    : High Efficiency Video Coding
Format profile                 : Main 10@L5@Main
Codec ID                       : V_MPEGH/ISO/HEVC
Duration                       : 13 min 11 s
Bit rate                       : 14.5 Mb/s
Width                          : 3 840 pixels
Height                         : 2 160 pixels
Display aspect ratio           : 16:9
Frame rate mode                : Constant
Frame rate                     : 29.970 (30000/1001) FPS
Color space                    : YUV
Chroma subsampling             : 4:2:0
Bit depth                      : 10 bits
Bits/(Pixel*Frame)             : 0.058
Stream size                    : 1.33 GiB (99%)
Writing library                : x265 2.9:[Windows][GCC 7.1.0][64 bit] 10bit
Encoding settings              : cpuid=1111039 / frame-threads=3 / numa-pools=12 / wpp / no-pmode / no-pme / no-psnr / no-ssim / log-level=2 / input-csp=1 / input-res=3840x2160 / interlace=0 / total-frames=0 / level-idc=0 / high-tier=1 / uhd-bd=0 / ref=3 / no-allow-non-conformance / no-repeat-headers / annexb / no-aud / no-hrd / info / hash=0 / no-temporal-layers / open-gop / min-keyint=30 / keyint=300 / gop-lookahead=0 / bframes=4 / b-adapt=0 / b-pyramid / bframe-bias=0 / rc-lookahead=15 / lookahead-slices=8 / scenecut=40 / radl=0 / no-intra-refresh / ctu=64 / min-cu-size=8 / no-rect / no-amp / max-tu-size=32 / tu-inter-depth=1 / tu-intra-depth=1 / limit-tu=0 / rdoq-level=0 / dynamic-rd=0.00 / no-ssim-rd / signhide / no-tskip / nr-intra=0 / nr-inter=0 / no-constrained-intra / strong-intra-smoothing / max-merge=2 / limit-refs=3 / no-limit-modes / me=1 / subme=2 / merange=57 / temporal-mvp / weightp / no-weightb / no-analyze-src-pics / deblock=0:0 / sao / no-sao-non-deblock / rd=2 / no-early-skip / rskip / fast-intra / no-tskip-fast / no-cu-lossless / no-b-intra / no-splitrd-skip / rdpenalty=0 / psy-rd=2.00 / psy-rdoq=0.00 / no-rd-refine / no-lossless / cbqpoffs=0 / crqpoffs=0 / rc=crf / crf=22.0 / qcomp=0.60 / qpstep=4 / stats-write=0 / stats-read=0 / ipratio=1.40 / pbratio=1.30 / aq-mode=1 / aq-strength=1.00 / cutree / zone-count=0 / no-strict-cbr / qg-size=32 / no-rc-grain / qpmax=69 / qpmin=0 / no-const-vbv / sar=1 / overscan=0 / videoformat=5 / range=0 / colorprim=1 / transfer=1 / colormatrix=1 / chromaloc=0 / display-window=0 / max-cll=0,0 / min-luma=0 / max-luma=1023 / log2-max-poc-lsb=8 / vui-timing-info / vui-hrd-info / slices=1 / no-opt-qp-pps / no-opt-ref-list-length-pps / no-multi-pass-opt-rps / scenecut-bias=0.05 / no-opt-cu-delta-qp / no-aq-motion / no-hdr / no-hdr-opt / no-dhdr10-opt / no-idr-recovery-sei / analysis-reuse-level=5 / scale-factor=0 / refine-intra=0 / refine-inter=0 / refine-mv=0 / no-limit-sao / ctu-info=0 / no-lowpass-dct / refine-mv-type=0 / copy-pic=1 / max-ausize-factor=1.0 / no-dynamic-refine / no-single-sei
Default                        : Yes
Forced                         : No
Color range                    : Limited
Color primaries                : BT.709
Transfer characteristics       : BT.709
Matrix coefficients            : BT.709

Audio
ID                             : 1
Format                         : AAC LC
Format/Info                    : Advanced Audio Codec Low Complexity
Codec ID                       : A_AAC-2
Duration                       : 13 min 11 s
Bit rate                       : 192 kb/s
Channel(s)                     : 2 channels
Channel layout                 : L R
Sampling rate                  : 44.1 kHz
Frame rate                     : 43.066 FPS (1024 SPF)
Compression mode               : Lossy
Delay relative to video        : -4 ms
Stream size                    : 18.1 MiB (1%)
Language                       : English
Default                        : Yes
Forced                         : No

1080P信息资料
[滤镜使用列表]
  (1) Built-in MP4 Source
  (2) Built-in Video Codec/Transform
  (3) Enhanced Video Renderer(Custom Present)
  (4) Built-in Audio Codec/Transform
  (5) DirectSound Audio Renderer

[视频信息]
  视频编码: AVC1 - 内置 FFmpeg 解码器(h264, Thread Frame)
  输入格式: AVC1(24 bits)
  输入尺寸: 1920 × 1080(1.97:1)
  输出格式: YV12(12 bits)
  输出尺寸: 1920 × 1080(1.97:1)
  帧率: 29
  BitRate: 未知

[音频信息]
  音频编码: AAC(0xaac0) - 内置 FFmpeg 解码器(aac)
  采样率: 44100 -> 44100 Hz
  位率: 16 -> 16 位
  声道数: 2 -> 2 声道
  Bitrate: 128 kbps


2160P网盘下载(1.34GB)
网盘下载失效请内信告知:链接: https://pan.baidu.com/s/1Hn4tAnik-e8SYmEAPIBL3w
****此区域为收费内容****    需支付 50 金币后可查看立即购买


游客,如果您要查看本帖隐藏内容请回复

1080P网盘下载(392MB)
网盘下载失效不补:链接: https://pan.baidu.com/s/1YakWYTz76h1pqRG--n2ffg
****此区域为收费内容****    需支付 25 金币后可查看立即购买


.


上一篇:韩国女团(3ROOT) 1 [2160P/MP4/432MB]
下一篇:2019第10届台湾小姐泳装赛9号参赛者走秀] [2160P/MP4/339MB]
回复

使用道具 举报

49

主题

1100

帖子

3108

积分

4K家园VIP

Rank: 9Rank: 9Rank: 9

积分
3108
发表于 2019-7-26 13:30:26 | 显示全部楼层
我也来顶一下..
回复 支持 反对

使用道具 举报

0

主题

15

帖子

122

积分

新手上路

Rank: 1

积分
122
发表于 2019-7-26 13:33:10 | 显示全部楼层
辛苦楼主
回复

使用道具 举报

0

主题

1

帖子

19

积分

新手上路

Rank: 1

积分
19
发表于 2019-7-26 13:36:45 来自手机 | 显示全部楼层
幸苦了
回复

使用道具 举报

0

主题

2

帖子

19

积分

新手上路

Rank: 1

积分
19
发表于 2019-7-26 14:32:06 | 显示全部楼层
辛苦了 ,哈哈
回复 支持 反对

使用道具 举报

0

主题

5

帖子

43

积分

新手上路

Rank: 1

积分
43
发表于 2019-7-26 14:54:37 | 显示全部楼层
辛苦楼主
回复

使用道具 举报

0

主题

2

帖子

19

积分

新手上路

Rank: 1

积分
19
发表于 2019-7-26 14:57:43 | 显示全部楼层

辛苦
回复

使用道具 举报

0

主题

4

帖子

34

积分

新手上路

Rank: 1

积分
34
发表于 2019-7-26 15:50:15 | 显示全部楼层
辛苦楼主
回复

使用道具 举报

0

主题

5

帖子

32

积分

新手上路

Rank: 1

积分
32
发表于 2019-7-26 17:18:14 | 显示全部楼层
发的所发生的发沙发是打发斯蒂芬
回复 支持 反对

使用道具 举报

0

主题

4

帖子

41

积分

新手上路

Rank: 1

积分
41
发表于 2019-7-26 17:26:10 | 显示全部楼层

幸苦了
回复

使用道具 举报

您需要登录后才可以回帖 登录 | 立即注册

本版积分规则

精彩图文
关闭

站长推荐上一条 /1 下一条

Archiver|手机版|TAG|Sitemap|新帖|专题|联系我们:邮箱: 4kjia.com@gmail.com   

4k家园   ©2019