[4K欧美MV] 2022 Maia Reficco - Rápido y Furioso [2160P/MP4/1.44GB]

  [复制链接]

主题

帖子

0

积分

超级版主

Rank: 8Rank: 8

积分
0
 楼主| 发表于 2022-9-26 10:26:26 | 显示全部楼层 |阅读模式
本帖最后由 叽里呱啦 于 2022-9-26 10:27 编辑

2022 Maia Reficco - Rápido y Furioso.mp4_20220925_202636.803.jpg Maia Reficco - Rápido y Furioso.mp4_20220925_202232.980.jpg Maia Reficco - Rápido y Furioso.mp4_20220925_202247.668.jpg Maia Reficco - Rápido y Furioso.mp4_20220925_202258.723.jpg Maia Reficco - Rápido y Furioso.mp4_20220925_202308.388.jpg Maia Reficco - Rápido y Furioso.mp4_20220925_202331.227.jpg Maia Reficco - Rápido y Furioso.mp4_20220925_202348.099.jpg Maia Reficco - Rápido y Furioso.mp4_20220925_202404.644.jpg

Video
ID                             : 1
Format                         : AVC
Format/Info                    : Advanced Video Codec
Format profile                 : Main@L5.1
Format settings                : CABAC / 4 Ref Frames
Format settings, CABAC         : Yes
Format settings, Reference fra : 4 frames
Codec ID                       : avc1
Codec ID/Info                  : Advanced Video Coding
Duration                       : 2 min 34 s
Bit rate                       : 80.0 Mb/s
Width                          : 3 840 pixels
Height                         : 2 160 pixels
Display aspect ratio           : 16:9
Frame rate mode                : Constant
Frame rate                     : 25.000 FPS
Color space                    : YUV
Chroma subsampling             : 4:2:0
Bit depth                      : 8 bits
Scan type                      : Progressive
Bits/(Pixel*Frame)             : 0.386
Stream size                    : 1.44 GiB (100%)
Language                       : English
Encoded date                   : UTC 2022-03-24 05:21:41
Tagged date                    : UTC 2022-03-24 05:21:41
Color range                    : Limited
Color primaries                : BT.709
Transfer characteristics       : BT.709
Matrix coefficients            : BT.709
Codec configuration box        : avcC

Audio
ID                             : 2
Format                         : AAC LC
Format/Info                    : Advanced Audio Codec Low Complexity
Codec ID                       : mp4a-40-2
Duration                       : 2 min 34 s
Source duration                : 2 min 34 s
Bit rate mode                  : Variable
Bit rate                       : 317 kb/s
Maximum bit rate               : 416 kb/s
Channel(s)                     : 2 channels
Channel layout                 : L R
Sampling rate                  : 48.0 kHz
Frame rate                     : 46.875 FPS (1024 SPF)
Compression mode               : Lossy
Stream size                    : 5.84 MiB (0%)
Source stream size             : 5.85 MiB (0%)
Language                       : English
Encoded date                   : UTC 2022-03-24 05:21:41
Tagged date                    : UTC 2022-03-24 05:21:41

下载地址:
PS:小水管制作不易,下载后请保持做种姿势,谢谢!
游客,如果您要查看本帖隐藏内容请回复

提供2010-2022年本人多年来珍藏优质[4K、8K、16K(25-120fps)] 高品质韩国(女团)MV、各种演示片、测试片等4K韩国MV“珍藏版”视频硬盘有偿拷贝或网盘分享,最新4K视频每天更新中,需要的联系本楼主!



上一篇:[4K MV] 2022 Chung Ha X R3HAB - 梦想你 [2160P/MP4/1.20GB]
下一篇:[4K最新MV] 2022 Black Pink - 歇业 [2160P/MP4/903MB]
回复

使用道具 举报

1

主题

1315

帖子

3961

积分

4K家园VIP

Rank: 9Rank: 9Rank: 9

积分
3961
发表于 2022-9-26 10:26:32 | 显示全部楼层
支持楼主,用户楼主,楼主英明呀!!!
回复 支持 反对

使用道具 举报

主题

帖子

0

积分

新手上路

Rank: 1

积分
0
发表于 2022-9-26 10:49:59 | 显示全部楼层
支持楼主
回复

使用道具 举报

主题

帖子

16

积分

新手上路

Rank: 1

积分
16
发表于 2022-9-26 16:08:37 | 显示全部楼层
AAAAAAAAAAA
回复 支持 反对

使用道具 举报

主题

帖子

6

积分

新手上路

Rank: 1

积分
6
发表于 2022-9-27 01:40:55 来自手机 | 显示全部楼层
666666666666支持支持支持支持
回复 支持 反对

使用道具 举报

主题

帖子

9

积分

新手上路

Rank: 1

积分
9
发表于 2022-9-27 09:12:40 | 显示全部楼层
支持楼主,用户楼主,楼主英明呀!!!
回复 支持 反对

使用道具 举报

3

主题

1390

帖子

4192

积分

4K家园VIP

Rank: 9Rank: 9Rank: 9

积分
4192
发表于 2022-9-28 18:17:28 | 显示全部楼层
呵呵。。。
回复 支持 反对

使用道具 举报

0

主题

1416

帖子

4262

积分

4K家园VIP

Rank: 9Rank: 9Rank: 9

积分
4262
发表于 2022-9-29 19:16:30 来自手机 | 显示全部楼层
支持一下楼主发表的内容
回复 支持 反对

使用道具 举报

2

主题

1443

帖子

4353

积分

4K家园VIP

Rank: 9Rank: 9Rank: 9

积分
4353
发表于 2022-10-2 16:07:02 来自手机 | 显示全部楼层
4K电影下个试试
回复 支持 反对

使用道具 举报

0

主题

32

帖子

268

积分

新手上路

Rank: 1

积分
268
发表于 2022-10-4 23:13:20 | 显示全部楼层
谢谢分享
回复

使用道具 举报

您需要登录后才可以回帖 登录 | 立即注册

本版积分规则

精彩图文
Archiver|手机版|TAG|Sitemap|新帖|专题|联系我们:邮箱: 4kjia.com@gmail.com   

4k家园   ©2019