美国恐怖故事集(2022)第二季全/4K高清版本下载

[复制链接]

主题

帖子

0

积分

超级版主

Rank: 8Rank: 8

积分
0
 楼主| 发表于 2022-9-25 21:22:51 | 显示全部楼层 |阅读模式
本帖最后由 美剧小虾 于 2022-9-25 21:48 编辑

p2874918342_副本.jpg

◎译  名 美国恐怖故事集 第二季
◎片  名 American Horror Stories Season 2
◎年  代 2022
◎产  地 美国
◎类  别 剧情/悬疑/惊悚/恐怖
◎语  言 英语
◎上映日期 2022-07-21(美国)
◎IMDb评分 6.2/10 from 20375 users 更新 : 2022-09-22
◎IMDb链接 https://www.imdb.com/title/tt12306692/
◎豆瓣评分 6.4/10 from 2995 users 更新 : 2022-09-25
◎豆瓣链接 https://douban.com/subject/35900647/
◎集  数 9
◎导  演 洛尼·佩里斯特里 Loni Peristere
◎编  剧 瑞恩·墨菲 Ryan Murphy / 布拉德·法尔查克 Brad Falchuk / 曼尼·科托 Manny Coto
◎主  演 艾比·科里甘 Abby Corrigan
       克里斯汀·弗劳赛斯 Kristine Froseth
       丹尼斯·欧哈拉 Denis O'Hare

◎简  介

          一次玩具厂的面试让一个年轻女孩来到了一个真人版娃娃屋。但这里并不是孩子玩乐的游乐园,而是充斥着宛如洋娃娃一般诡异的氛围。

Video
ID : 1
Format : HEVC
Format/Info : High Efficiency Video Coding
Format profile : Main 10@L5.1@Main
Codec ID : V_MPEGH/ISO/HEVC
Duration : 43 min 16 s
Bit rate : 15.4 Mb/s
Width : 3 840 pixels
Height : 2 160 pixels
Display aspect ratio : 16:9
Frame rate mode : Constant
Frame rate : 23.976 (24000/1001) FPS
Color space : YUV
Chroma subsampling : 4:2:0
Bit depth : 10 bits
Bits/(Pixel*Frame) : 0.077
Stream size : 4.65 GiB (98%)
Language : English
Default : Yes
Forced : No

Audio
ID : 2
Format : E-AC-3
Format/Info : Enhanced AC-3
Commercial name : Dolby Digital Plus
Codec ID : A_EAC3
Duration : 43 min 17 s
Bit rate mode : Constant
Bit rate : 256 kb/s
Channel(s) : 6 channels
Channel layout : L R C LFE Ls Rs
Sampling rate : 48.0 kHz
Frame rate : 31.250 FPS (1536 SPF)
Compression mode : Lossy
Stream size : 79.3 MiB (2%)
Language : English
Service kind : Complete Main
Default : Yes
Forced : No

Text
ID : 3
Format : UTF-8
Codec ID : S_TEXT/UTF8
Codec ID/Info : UTF-8 Plain Text
Duration : 43 min 5 s
Bit rate : 74 b/s
Frame rate : 0.312 FPS
Count of elements : 806
Stream size : 23.5 KiB (0%)
Title : English
Language : English
Default : No
Forced : No

下载地址:

游客,如果您要查看本帖隐藏内容请回复








上一篇:芝加哥故事 / The Chi(2022)/第五季全/4K高清版本下载
下一篇:失踪禁地 [简繁粤] (2022) / 第一季全/4K高清版本下载
回复

使用道具 举报

39

主题

1493

帖子

4245

积分

4K家园VIP

Rank: 9Rank: 9Rank: 9

积分
4245
发表于 2022-9-25 21:23:48 | 显示全部楼层
专业抢沙发的!哈哈
回复 支持 反对

使用道具 举报

主题

帖子

12

积分

新手上路

Rank: 1

积分
12
发表于 2022-9-25 21:45:03 | 显示全部楼层
必须支持下,版主
回复 支持 反对

使用道具 举报

主题

帖子

0

积分

4K家园VIP

Rank: 9Rank: 9Rank: 9

积分
0
发表于 2022-9-25 22:26:32 | 显示全部楼层
太好啦&萬分感謝版主的無私發佈分享%
回复 支持 反对

使用道具 举报

主题

帖子

36

积分

新手上路

Rank: 1

积分
36
发表于 2022-9-26 10:03:41 | 显示全部楼层
谢谢分享,看一下内容
回复 支持 反对

使用道具 举报

1

主题

1211

帖子

3653

积分

4K家园VIP

Rank: 9Rank: 9Rank: 9

积分
3653
发表于 2022-9-26 22:06:08 | 显示全部楼层
为毛老子总也抢不到沙发?!!
回复 支持 反对

使用道具 举报

52

主题

1531

帖子

4461

积分

4K家园VIP

Rank: 9Rank: 9Rank: 9

积分
4461
发表于 2022-9-26 23:10:56 | 显示全部楼层
我是个凑数的。。。
回复 支持 反对

使用道具 举报

1

主题

1409

帖子

4245

积分

4K家园VIP

Rank: 9Rank: 9Rank: 9

积分
4245
发表于 2022-9-29 03:20:10 来自手机 | 显示全部楼层
顶起顶起顶起
回复 支持 反对

使用道具 举报

37

主题

1564

帖子

4496

积分

4K家园VIP

Rank: 9Rank: 9Rank: 9

积分
4496
发表于 2022-9-29 12:24:36 | 显示全部楼层
支持下楼主,顶一个
回复 支持 反对

使用道具 举报

0

主题

323

帖子

1920

积分

4K家园VIP

Rank: 9Rank: 9Rank: 9

积分
1920
QQ
发表于 2022-10-6 14:46:35 | 显示全部楼层
让 江小白 来看看帖子里藏了啥好东西~~~
回复 支持 反对

使用道具 举报

您需要登录后才可以回帖 登录 | 立即注册

本版积分规则

精彩图文
Archiver|手机版|TAG|Sitemap|新帖|专题|联系我们:邮箱: 4kjia.com@gmail.com   

4k家园   ©2019