失踪禁地 [简繁粤] (2022) / 第一季全/4K高清版本下载

[复制链接]

主题

帖子

0

积分

超级版主

Rank: 8Rank: 8

积分
0
 楼主| 发表于 2022-9-25 22:03:34 | 显示全部楼层 |阅读模式
本帖最后由 美剧小虾 于 2022-10-1 12:48 编辑

p2879882454_副本.jpg

◎片  名 Tierra Incógnita
◎年  代 2022
◎产  地 阿根廷
◎类  别 悬疑/恐怖
◎语  言 西班牙语
◎上映日期 2022-09-08(阿根廷)
◎IMDb评分 4.7/10 from 182 users 更新 : 2022-09-21
◎IMDb链接  https://www.imdb.com/title/tt15566204/
◎豆瓣评分 0/10 from 0 users
◎豆瓣链接 https://douban.com/subject/36076152/
◎集  数 8
◎片  长 30分钟
◎主  演 佩德罗·莫里兹(Pedro Maurizi)
                   莫拉·菲斯(Mora Fisz)
                   托马斯·柯兹纳(Tomás Kirzner)



◎简  介


       八年前他的父母神秘失踪后,年轻的埃里克·达拉拉斯开始寻找真相,并进入了一个可怕的世界。他和他的妹妹乌玛和他们的外祖父母一起长大。Eric 决定离开他的家乡,回到他童年的地方 Cabo Qwert,他想在 Tierra Incógnita 恐怖游乐园寻找答案,因为这是他父母最后一次出现的地方。埃里克必须与他的朋友、妹妹和阿姨一起克服恐惧,才能解开谜题,最终让他找到所有问题的答案,这些问题隐藏在一个黑暗的宇宙中。

Video
ID : 1
Format : HEVC
Format/Info : High Efficiency Video Coding
Format profile : Main 10@L5@High
HDR format : SMPTE ST 2086, HDR10 compatible
Codec ID : V_MPEGH/ISO/HEVC
Duration : 42 min 22 s
Bit rate : 13.3 Mb/s
Width : 3 840 pixels
Height : 2 160 pixels
Display aspect ratio : 16:9
Frame rate mode : Constant
Frame rate : 23.976 (24000/1001) FPS
Color space : YUV
Chroma subsampling : 4:2:0
Bit depth : 10 bits
Bits/(Pixel*Frame) : 0.067
Stream size : 3.94 GiB (98%)
Default : Yes
Forced : No
Color range : Limited
Color primaries : BT.2020
Transfer characteristics : PQ
Matrix coefficients : BT.2020 non-constant
Mastering display color primaries : BT.2020
Mastering display luminance : min: 0.0010 cd/m2, max: 1000 cd/m2

Audio
ID : 2
Format : E-AC-3
Format/Info : Enhanced AC-3
Commercial name : Dolby Digital Plus
Codec ID : A_EAC3
Duration : 42 min 22 s
Bit rate mode : Constant
Bit rate : 256 kb/s
Channel(s) : 6 channels
Channel layout : L R C LFE Ls Rs
Sampling rate : 48.0 kHz
Frame rate : 31.250 FPS (1536 SPF)
Compression mode : Lossy
Stream size : 77.6 MiB (2%)
Language : Spanish
Service kind : Complete Main
Default : Yes
Forced : No

Text #1
ID : 3
Format : UTF-8
Codec ID : S_TEXT/UTF8
Codec ID/Info : UTF-8 Plain Text
Duration : 42 min 20 s
Bit rate : 47 b/s
Frame rate : 0.126 FPS
Count of elements : 321
Stream size : 14.8 KiB (0%)
Language : Spanish
Default : No
Forced : No

Text #2
ID : 4
Format : UTF-8
Codec ID : S_TEXT/UTF8
Codec ID/Info : UTF-8 Plain Text
Duration : 42 min 20 s
Bit rate : 53 b/s
Frame rate : 0.156 FPS
Count of elements : 396
Stream size : 16.6 KiB (0%)
Title : SDH
Language : Spanish
Default : No
Forced : No

Text #3
ID : 5
Format : UTF-8
Codec ID : S_TEXT/UTF8
Codec ID/Info : UTF-8 Plain Text
Duration : 40 min 16 s
Bit rate : 52 b/s
Frame rate : 0.135 FPS
Count of elements : 327
Stream size : 15.4 KiB (0%)
Language : English
Default : No
Forced : No

Text #4
ID : 6
Format : UTF-8
Codec ID : S_TEXT/UTF8
Codec ID/Info : UTF-8 Plain Text
Duration : 40 min 37 s
Bit rate : 61 b/s
Frame rate : 0.169 FPS
Count of elements : 411
Stream size : 18.2 KiB (0%)
Title : SDH
Language : English
Default : No
Forced : No

Text #5
ID : 7
Format : UTF-8
Codec ID : S_TEXT/UTF8
Codec ID/Info : UTF-8 Plain Text
Duration : 42 min 19 s
Bit rate : 44 b/s
Frame rate : 0.129 FPS
Count of elements : 327
Stream size : 13.7 KiB (0%)
Language : Czech
Default : No
Forced : No

Text #6
ID : 8
Format : UTF-8
Codec ID : S_TEXT/UTF8
Codec ID/Info : UTF-8 Plain Text
Duration : 42 min 20 s
Bit rate : 45 b/s
Frame rate : 0.128 FPS
Count of elements : 325
Stream size : 14.1 KiB (0%)
Language : Danish
Default : No
Forced : No

Text #7
ID : 9
Format : UTF-8
Codec ID : S_TEXT/UTF8
Codec ID/Info : UTF-8 Plain Text
Duration : 42 min 19 s
Bit rate : 51 b/s
Frame rate : 0.129 FPS
Count of elements : 327
Stream size : 16.0 KiB (0%)
Language : German
Default : No
Forced : No

Text #8
ID : 10
Format : UTF-8
Codec ID : S_TEXT/UTF8
Codec ID/Info : UTF-8 Plain Text
Duration : 42 min 19 s
Bit rate : 72 b/s
Frame rate : 0.128 FPS
Count of elements : 326
Stream size : 22.4 KiB (0%)
Language : Greek
Default : No
Forced : No

Text #9
ID : 11
Format : UTF-8
Codec ID : S_TEXT/UTF8
Codec ID/Info : UTF-8 Plain Text
Duration : 42 min 19 s
Bit rate : 46 b/s
Frame rate : 0.129 FPS
Count of elements : 327
Stream size : 14.3 KiB (0%)
Language : Finnish
Default : No
Forced : No

Text #10
ID : 12
Format : UTF-8
Codec ID : S_TEXT/UTF8
Codec ID/Info : UTF-8 Plain Text
Duration : 42 min 20 s
Bit rate : 47 b/s
Frame rate : 0.131 FPS
Count of elements : 332
Stream size : 14.6 KiB (0%)
Language : French
Default : No
Forced : No

Text #11
ID : 13
Format : UTF-8
Codec ID : S_TEXT/UTF8
Codec ID/Info : UTF-8 Plain Text
Duration : 42 min 19 s
Bit rate : 44 b/s
Frame rate : 0.128 FPS
Count of elements : 325
Stream size : 13.8 KiB (0%)
Language : Hungarian
Default : No
Forced : No

Text #12
ID : 14
Format : UTF-8
Codec ID : S_TEXT/UTF8
Codec ID/Info : UTF-8 Plain Text
Duration : 42 min 19 s
Bit rate : 46 b/s
Frame rate : 0.135 FPS
Count of elements : 342
Stream size : 14.4 KiB (0%)
Language : Italian
Default : No
Forced : No

Text #13
ID : 15
Format : UTF-8
Codec ID : S_TEXT/UTF8
Codec ID/Info : UTF-8 Plain Text
Duration : 42 min 19 s
Bit rate : 39 b/s
Frame rate : 0.182 FPS
Count of elements : 461
Stream size : 12.2 KiB (0%)
Language : Japanese
Default : No
Forced : No

Text #14
ID : 16
Format : UTF-8
Codec ID : S_TEXT/UTF8
Codec ID/Info : UTF-8 Plain Text
Duration : 42 min 19 s
Bit rate : 50 b/s
Frame rate : 0.172 FPS
Count of elements : 436
Stream size : 15.7 KiB (0%)
Language : Korean
Default : No
Forced : No

Text #15
ID : 17
Format : UTF-8
Codec ID : S_TEXT/UTF8
Codec ID/Info : UTF-8 Plain Text
Duration : 42 min 17 s
Bit rate : 45 b/s
Frame rate : 0.127 FPS
Count of elements : 323
Stream size : 14.2 KiB (0%)
Language : Dutch
Default : No
Forced : No

Text #16
ID : 18
Format : UTF-8
Codec ID : S_TEXT/UTF8
Codec ID/Info : UTF-8 Plain Text
Duration : 42 min 20 s
Bit rate : 44 b/s
Frame rate : 0.129 FPS
Count of elements : 327
Stream size : 13.8 KiB (0%)
Language : Norwegian
Default : No
Forced : No

Text #17
ID : 19
Format : UTF-8
Codec ID : S_TEXT/UTF8
Codec ID/Info : UTF-8 Plain Text
Duration : 42 min 20 s
Bit rate : 41 b/s
Frame rate : 0.159 FPS
Count of elements : 405
Stream size : 13.0 KiB (0%)
Language : Polish
Default : No
Forced : No

Text #18
ID : 20
Format : UTF-8
Codec ID : S_TEXT/UTF8
Codec ID/Info : UTF-8 Plain Text
Duration : 42 min 19 s
Bit rate : 47 b/s
Frame rate : 0.147 FPS
Count of elements : 372
Stream size : 14.8 KiB (0%)
Title : Portuguese (Brazil)
Language : Portuguese
Default : No
Forced : No

Text #19
ID : 21
Format : UTF-8
Codec ID : S_TEXT/UTF8
Codec ID/Info : UTF-8 Plain Text
Duration : 42 min 18 s
Bit rate : 46 b/s
Frame rate : 0.128 FPS
Count of elements : 324
Stream size : 14.5 KiB (0%)
Title : Portuguese (Portugal)
Language : Portuguese
Default : No
Forced : No

Text #20
ID : 22
Format : UTF-8
Codec ID : S_TEXT/UTF8
Codec ID/Info : UTF-8 Plain Text
Duration : 42 min 19 s
Bit rate : 48 b/s
Frame rate : 0.128 FPS
Count of elements : 324
Stream size : 14.9 KiB (0%)
Language : Romanian
Default : No
Forced : No

Text #21
ID : 23
Format : UTF-8
Codec ID : S_TEXT/UTF8
Codec ID/Info : UTF-8 Plain Text
Duration : 42 min 19 s
Bit rate : 44 b/s
Frame rate : 0.128 FPS
Count of elements : 326
Stream size : 13.8 KiB (0%)
Language : Slovak
Default : No
Forced : No

Text #22
ID : 24
Format : UTF-8
Codec ID : S_TEXT/UTF8
Codec ID/Info : UTF-8 Plain Text
Duration : 42 min 19 s
Bit rate : 45 b/s
Frame rate : 0.129 FPS
Count of elements : 328
Stream size : 14.0 KiB (0%)
Language : Swedish
Default : No
Forced : No

Text #23
ID : 25
Format : UTF-8
Codec ID : S_TEXT/UTF8
Codec ID/Info : UTF-8 Plain Text
Duration : 42 min 20 s
Bit rate : 49 b/s
Frame rate : 0.129 FPS
Count of elements : 327
Stream size : 15.3 KiB (0%)
Language : Turkish
Default : No
Forced : No

Text #24
ID : 26
Format : UTF-8
Codec ID : S_TEXT/UTF8
Codec ID/Info : UTF-8 Plain Text
Duration : 42 min 19 s
Bit rate : 39 b/s
Frame rate : 0.171 FPS
Count of elements : 435
Stream size : 12.4 KiB (0%)
Title : 中文(粤语)
Language : Chinese
Default : No
Forced : No

Text #25
ID : 27
Format : UTF-8
Codec ID : S_TEXT/UTF8
Codec ID/Info : UTF-8 Plain Text
Duration : 42 min 19 s
Bit rate : 40 b/s
Frame rate : 0.172 FPS
Count of elements : 437
Stream size : 12.5 KiB (0%)
Title : 中文(简体)
Language : Chinese
Default : No
Forced : No

Text #26
ID : 28
Format : UTF-8
Codec ID : S_TEXT/UTF8
Codec ID/Info : UTF-8 Plain Text
Duration : 42 min 19 s
Bit rate : 40 b/s
Frame rate : 0.171 FPS
Count of elements : 435
Stream size : 12.4 KiB (0%)
Title : 中文(繁体)
Language : Chinese
Default : No
Forced : No

下载地址:

游客,如果您要查看本帖隐藏内容请回复

游客,如果您要查看本帖隐藏内容请回复

游客,如果您要查看本帖隐藏内容请回复





上一篇:美国恐怖故事集(2022)第二季全/4K高清版本下载
下一篇:指环王:力量之戒[简繁](2022)第一季更至05集/4K高清版本下载
回复

使用道具 举报

62

主题

1550

帖子

4530

积分

4K家园VIP

Rank: 9Rank: 9Rank: 9

积分
4530
发表于 2022-9-25 22:04:10 | 显示全部楼层
哈哈,我只看看不说话
回复 支持 反对

使用道具 举报

主题

帖子

0

积分

4K家园VIP

Rank: 9Rank: 9Rank: 9

积分
0
发表于 2022-9-25 22:27:01 | 显示全部楼层
太好啦&萬分感謝版主的無私發佈分享%
回复 支持 反对

使用道具 举报

主题

帖子

0

积分

新手上路

Rank: 1

积分
0
发表于 2022-9-26 09:11:44 | 显示全部楼层
太好了,谢谢楼主      
回复 支持 反对

使用道具 举报

53

主题

1555

帖子

4532

积分

4K家园VIP

Rank: 9Rank: 9Rank: 9

积分
4532
发表于 2022-9-28 01:37:14 | 显示全部楼层
支持楼主,用户楼主,楼主英明呀!!!
回复 支持 反对

使用道具 举报

主题

帖子

0

积分

4K家园VIP

Rank: 9Rank: 9Rank: 9

积分
0
发表于 2022-9-28 08:45:24 | 显示全部楼层
太好啦&萬分感謝版主的無私發佈分享%
回复 支持 反对

使用道具 举报

54

主题

1612

帖子

4607

积分

4K家园VIP

Rank: 9Rank: 9Rank: 9

积分
4607
发表于 2022-9-29 06:11:02 | 显示全部楼层
大人,此事必有蹊跷!
回复 支持 反对

使用道具 举报

3

主题

1452

帖子

4198

积分

4K家园VIP

Rank: 9Rank: 9Rank: 9

积分
4198
发表于 2022-9-29 18:08:21 | 显示全部楼层
前排,哇咔咔
回复 支持 反对

使用道具 举报

3

主题

1388

帖子

4182

积分

4K家园VIP

Rank: 9Rank: 9Rank: 9

积分
4182
发表于 2022-10-1 13:23:00 | 显示全部楼层
啊啊啊啊啊啊啊啊啊啊啊
回复 支持 反对

使用道具 举报

您需要登录后才可以回帖 登录 | 立即注册

本版积分规则

精彩图文
Archiver|手机版|TAG|Sitemap|新帖|专题|联系我们:邮箱: 4kjia.com@gmail.com   

4k家园   ©2019