[4K电影] 歌剧魅影 / Phantom of the Opera (1943) 4K高清版本下载

[复制链接]

主题

帖子

0

积分

超级版主

Rank: 8Rank: 8

积分
0
 楼主| 发表于 2022-9-27 10:41:08 | 显示全部楼层 |阅读模式
QQ图片20220927104020_副本.png
◎译  名 歌剧魅影
◎片  名 Phantom of the Opera
◎年  代 1943
◎产  地 美国
◎类  别 剧情/爱情/惊悚/恐怖/音乐
◎语  言 英语
◎上映日期 1943-08-12
◎IMDb评分 6.4/10 from 7365 users
◎IMDb链接 https://www.imdb.com/title/tt0036261/
◎豆瓣评分   7.1/10 from 797 users
◎豆瓣链接 https://movie.douban.com/subject/1294780/
◎片  长 92分钟
◎导  演 阿瑟·卢宾 Arthur Lubin
◎编  剧 萨莫尔·霍芬斯蒂安 Samuel Hoffenstein / 汉斯·雅各比 Hans Jacoby / 埃里克·泰勒 Eric Taylor
◎主  演 克劳德·雷恩斯 Claude Rains
       苏珊娜·福斯特 Susanna Foster
       纳尔逊·埃迪 Nelson Eddy
       埃德加·巴里尔 Edgar Barrier
       里奥·卡利罗 Leo Carrillo


◎简  介


  故事发生在金碧辉煌宾客满堂的巴黎歌剧院之中。小提琴家柯丹(克劳德·雷恩斯 Claude Rains 饰)爱上了美丽的女演员克丽丝(苏珊娜·福斯特 Susanna Foster 饰),柯丹知道自己和克丽丝之间的地位相差甚远,于是决定在事业上助她一臂之力。柯丹找来了德高望重的名师辅导克丽丝的演技,在老师的帮助下,克丽丝果然步步高升,很快就成为了剧团里的当家花旦,然而相对的,柯丹在一场意外中受伤,渐渐远离了舞台,两人渐行渐远。
  柯丹震惊的发现自己的作品竟然遭到了抄袭,抄袭作还出版了,愤怒的他杀死了贪婪自私的出版商,自己的容貌毁于一旦。自此之后,歌剧院里开始传出幽灵出没的怪谈。

Video
ID : 1
Format : HEVC
Format/Info : High Efficiency Video Coding
Format profile : Main 10@L5@High
HDR format : Dolby Vision, Version 1.0, dvhe.05.06, BL+RPU
Codec ID : V_MPEGH/ISO/HEVC
Duration : 1 h 32 min
Bit rate : 24.9 Mb/s
Width : 2 904 pixels
Height : 2 148 pixels
Display aspect ratio : 4:3
Frame rate mode : Constant
Frame rate : 23.976 (24000/1001) FPS
Color space : YUV
Chroma subsampling : 4:2:0
Bit depth : 10 bits
Bits/(Pixel*Frame) : 0.167
Stream size : 16.1 GiB (98%)
Language : English
Default : Yes
Forced : No

Audio #1
ID : 2
Format : E-AC-3
Format/Info : Enhanced AC-3
Commercial name : Dolby Digital Plus
Codec ID : A_EAC3
Duration : 1 h 32 min
Bit rate mode : Constant
Bit rate : 192 kb/s
Channel(s) : 2 channels
Channel layout : L R
Sampling rate : 48.0 kHz
Frame rate : 31.250 FPS (1536 SPF)
Compression mode : Lossy
Delay relative to video : 959 ms
Stream size : 127 MiB (1%)
Language : English
Service kind : Complete Main
Default : Yes
Forced : No

Audio #2
ID : 3
Format : AC-3
Format/Info : Audio Coding 3
Commercial name : Dolby Digital
Codec ID : A_AC3
Duration : 1 h 32 min
Bit rate mode : Constant
Bit rate : 192 kb/s
Channel(s) : 2 channels
Channel layout : L R
Sampling rate : 48.0 kHz
Frame rate : 31.250 FPS (1536 SPF)
Compression mode : Lossy
Stream size : 127 MiB (1%)
Title : Commentary Track with Steve McQueen
Language : English
Service kind : Complete Main
Default : No
Forced : No

Text #1
ID : 4
Format : UTF-8
Codec ID : S_TEXT/UTF8
Codec ID/Info : UTF-8 Plain Text
Duration : 1 h 26 min
Bit rate : 56 b/s
Frame rate : 0.182 FPS
Count of elements : 944
Stream size : 35.5 KiB (0%)
Language : English
Default : No
Forced : No

Text #2
ID : 5
Format : UTF-8
Codec ID : S_TEXT/UTF8
Codec ID/Info : UTF-8 Plain Text
Duration : 1 h 30 min
Bit rate : 55 b/s
Frame rate : 0.186 FPS
Count of elements : 1008
Stream size : 36.6 KiB (0%)
Title : SDH
Language : English
Default : No
Forced : No

Text #3
ID : 6
Format : UTF-8
Codec ID : S_TEXT/UTF8
Codec ID/Info : UTF-8 Plain Text
Duration : 1 h 27 min
Bit rate : 44 b/s
Frame rate : 0.134 FPS
Count of elements : 701
Stream size : 28.5 KiB (0%)
Language : Danish
Default : No
Forced : No

Text #4
ID : 7
Format : UTF-8
Codec ID : S_TEXT/UTF8
Codec ID/Info : UTF-8 Plain Text
Duration : 1 h 27 min
Bit rate : 45 b/s
Frame rate : 0.134 FPS
Count of elements : 699
Stream size : 29.1 KiB (0%)
Language : German
Default : No
Forced : No

Text #5
ID : 8
Format : UTF-8
Codec ID : S_TEXT/UTF8
Codec ID/Info : UTF-8 Plain Text
Duration : 1 h 27 min
Bit rate : 47 b/s
Frame rate : 0.134 FPS
Count of elements : 702
Stream size : 30.1 KiB (0%)
Language : Spanish
Default : No
Forced : No

Text #6
ID : 9
Format : UTF-8
Codec ID : S_TEXT/UTF8
Codec ID/Info : UTF-8 Plain Text
Duration : 1 h 31 min
Bit rate : 42 b/s
Frame rate : 0.142 FPS
Count of elements : 783
Stream size : 28.8 KiB (0%)
Title : Latin American
Language : Spanish
Default : No
Forced : No

Text #7
ID : 10
Format : UTF-8
Codec ID : S_TEXT/UTF8
Codec ID/Info : UTF-8 Plain Text
Duration : 1 h 27 min
Bit rate : 40 b/s
Frame rate : 0.134 FPS
Count of elements : 703
Stream size : 25.9 KiB (0%)
Language : Finnish
Default : No
Forced : No

Text #8
ID : 11
Format : UTF-8
Codec ID : S_TEXT/UTF8
Codec ID/Info : UTF-8 Plain Text
Duration : 1 h 27 min
Bit rate : 46 b/s
Frame rate : 0.132 FPS
Count of elements : 690
Stream size : 29.5 KiB (0%)
Language : French
Default : No
Forced : No

Text #9
ID : 12
Format : UTF-8
Codec ID : S_TEXT/UTF8
Codec ID/Info : UTF-8 Plain Text
Duration : 1 h 27 min
Bit rate : 48 b/s
Frame rate : 0.134 FPS
Count of elements : 703
Stream size : 31.2 KiB (0%)
Language : Italian
Default : No
Forced : No

Text #10
ID : 13
Format : UTF-8
Codec ID : S_TEXT/UTF8
Codec ID/Info : UTF-8 Plain Text
Duration : 1 h 27 min
Bit rate : 46 b/s
Frame rate : 0.135 FPS
Count of elements : 704
Stream size : 29.5 KiB (0%)
Language : Norwegian
Default : No
Forced : No

Text #11
ID : 14
Format : UTF-8
Codec ID : S_TEXT/UTF8
Codec ID/Info : UTF-8 Plain Text
Duration : 1 h 27 min
Bit rate : 44 b/s
Frame rate : 0.134 FPS
Count of elements : 702
Stream size : 28.3 KiB (0%)
Language : Swedish
Default : No
Forced : No

Text #12
ID : 15
Format : UTF-8
Codec ID : S_TEXT/UTF8
Codec ID/Info : UTF-8 Plain Text
Duration : 1 h 32 min
Bit rate : 125 b/s
Frame rate : 0.323 FPS
Count of elements : 1795
Stream size : 84.9 KiB (0%)
Title : English Commentary
Language : English
Default : No
Forced : No

Menu
00:00:00.000 : en:Main Titles
00:04:23.000 : en:Inspector Daubert
00:07:32.000 : en:Christine
00:10:30.000 : en:Monsieur Claudin
00:19:09.000 : en:Signor Ferretti
00:22:46.000 : en:The Music Publishers
00:26:04.000 : en:The Attack
00:30:03.000 : en:A Thief
00:32:35.000 : en:A Lullaby
00:35:43.000 : en:An Investigation
00:40:45.000 : en:The Phantom Touch
00:57:55.000 : en:In the Rigging
01:05:02.000 : en:Setting a Trap
01:14:44.000 : en:The Chandelier
01:18:18.000 : en:Abduction
01:23:27.000 : en:The Concerto
01:29:06.000 : en:Suitors
01:31:45.000 : en:End Titles

为了更好体验下载、推荐使用qBittorrent、uTorrent、BitComet等下载软件,有条件的推荐115或会员下载软件!

下载地址:


游客,如果您要查看本帖隐藏内容请回复

游客,如果您要查看本帖隐藏内容请回复

游客,如果您要查看本帖隐藏内容请回复

游客,如果您要查看本帖隐藏内容请回复




QQ图片20220927102531_副本.png

上一篇:子弹列车 / Bullet Train (2022) 4K高清版本下载
下一篇:坠落 / Fall (2022) 4K高清版本下载
回复

使用道具 举报

3

主题

1838

帖子

5062

积分

高级会员

Rank: 3Rank: 3

积分
5062
发表于 2022-9-27 10:41:11 | 显示全部楼层
体验下4K版的
回复 支持 反对

使用道具 举报

2

主题

1412

帖子

4102

积分

4K家园VIP

Rank: 9Rank: 9Rank: 9

积分
4102
发表于 2022-9-29 08:32:00 | 显示全部楼层
正好需要啊
回复 支持 反对

使用道具 举报

0

主题

1206

帖子

3632

积分

4K家园VIP

Rank: 9Rank: 9Rank: 9

积分
3632
发表于 2022-10-2 07:33:19 | 显示全部楼层
路过的帮顶
回复 支持 反对

使用道具 举报

55

主题

1503

帖子

4367

积分

4K家园VIP

Rank: 9Rank: 9Rank: 9

积分
4367
发表于 2022-10-4 10:57:42 来自手机 | 显示全部楼层
沙发位出租,
回复 支持 反对

使用道具 举报

2

主题

1731

帖子

4811

积分

4K家园VIP

Rank: 9Rank: 9Rank: 9

积分
4811
发表于 2022-10-5 21:39:57 | 显示全部楼层
我只是看看啊,不说话
回复 支持 反对

使用道具 举报

您需要登录后才可以回帖 登录 | 立即注册

本版积分规则

精彩图文
Archiver|手机版|TAG|Sitemap|新帖|专题|联系我们:邮箱: 4kjia.com@gmail.com   

4k家园   ©2019