[4K电影] 坠落 / Fall (2022) 4K高清版本下载

[复制链接]

主题

帖子

0

积分

超级版主

Rank: 8Rank: 8

积分
0
 楼主| 发表于 2022-9-27 18:55:47 | 显示全部楼层 |阅读模式

QQ图片20220927185447_副本.png

◎译  名 坠落/跌落/下坠/命悬2000呎(港)/坠(台)/The Fall
◎片  名 Fall
◎年  代 2022
◎产  地 英国/美国
◎类  别 动作/惊悚/冒险/运动
◎语  言 英语
◎上映日期 2022-08-12(美国)
◎IMDb评分 6.4/10 from 25497 users 更新 : 2022-09-25
◎IMDb链接 https://www.imdb.com/title/tt15325794/
◎豆瓣评分 7.2/10 from 90366 users 更新 : 2022-09-27
◎豆瓣链接 https://movie.douban.com/subject/35700395/
◎片  长 107分钟
◎导  演 斯科特·曼 Scott Mann
◎编  剧 乔纳森·弗兰克 Jonathan Frank / 斯科特·曼 Scott Mann
◎主  演 格蕾丝·富尔顿 Grace Fulton
       维吉尼亚·加德纳 Virginia Gardner
       杰弗里·迪恩·摩根 Jeffrey Dean Morgan
       梅森·古丁 Mason Gooding
       贾斯珀·科尔 Jasper Cole
       达雷尔·丹尼斯 Darrell Dennis
       朱莉娅·佩斯·米契尔 Julia Pace Mitchell


◎简  介


  贝琪(格蕾丝·富尔顿 饰)和亨特(维吉尼亚·加德纳 饰)是一对喜欢追求刺激的好友,某天,她们攀上一座高达610米的电视塔后,意外受困于顶端,面对恶劣天气和物资短缺,她们必须设法在令人晕眩的高度上活下去。

Video
ID : 1
Format : HEVC
Format/Info : High Efficiency Video Coding
Format profile : Main 10@L5@High
HDR format : SMPTE ST 2086, HDR10 compatible
Codec ID : V_MPEGH/ISO/HEVC
Duration : 1 h 47 min
Bit rate : 24.3 Mb/s
Width : 3 824 pixels
Height : 1 904 pixels
Display aspect ratio : 2.008
Frame rate mode : Constant
Frame rate : 23.976 FPS
Color space : YUV
Chroma subsampling : 4:2:0 (Type 2)
Bit depth : 10 bits
Bits/(Pixel*Frame) : 0.139
Stream size : 18.2 GiB (97%)
Default : Yes
Forced : No
Color range : Limited
Color primaries : BT.2020
Transfer characteristics : PQ
Matrix coefficients : BT.2020 non-constant
Mastering display color primaries : Display P3
Mastering display luminance : min: 0.0001 cd/m2, max: 1000 cd/m2
Maximum Content Light Level : 860 cd/m2
Maximum Frame-Average Light Level : 312 cd/m2

Audio
ID : 2
Format : E-AC-3
Format/Info : Enhanced AC-3
Commercial name : Dolby Digital Plus
Codec ID : A_EAC3
Duration : 1 h 47 min
Bit rate mode : Constant
Bit rate : 640 kb/s
Channel(s) : 6 channels
Channel layout : L R C LFE Ls Rs
Sampling rate : 48.0 kHz
Frame rate : 31.250 FPS (1536 SPF)
Compression mode : Lossy
Stream size : 491 MiB (3%)
Language : English
Service kind : Complete Main
Default : Yes
Forced : No

Text #1
ID : 3
Format : UTF-8
Codec ID : S_TEXT/UTF8
Codec ID/Info : UTF-8 Plain Text
Duration : 1 h 41 min
Bit rate : 41 b/s
Frame rate : 0.209 FPS
Count of elements : 1271
Stream size : 30.9 KiB (0%)
Language : English
Default : Yes
Forced : No

Text #2
ID : 4
Format : UTF-8
Codec ID : S_TEXT/UTF8
Codec ID/Info : UTF-8 Plain Text
Duration : 1 h 41 min
Bit rate : 50 b/s
Frame rate : 0.261 FPS
Count of elements : 1587
Stream size : 37.2 KiB (0%)
Title : SDH
Language : English
Default : No
Forced : No


为了更好体验下载、推荐使用qBittorrent、uTorrent、BitComet等下载软件,有条件的推荐115或会员下载软件!

下载地址:


游客,如果您要查看本帖隐藏内容请回复

游客,如果您要查看本帖隐藏内容请回复

游客,如果您要查看本帖隐藏内容请回复





上一篇:歌剧魅影 / Phantom of the Opera (1943) 4K高清版本下载
下一篇:尸体游戏 / Bodies, Bodies, Bodies (2022) 4K高清版本下载
回复

使用道具 举报

1

主题

1671

帖子

4587

积分

4K家园VIP

Rank: 9Rank: 9Rank: 9

积分
4587
发表于 2022-9-27 18:55:53 来自手机 | 显示全部楼层
体验下4K版的
回复 支持 反对

使用道具 举报

主题

帖子

0

积分

4K家园VIP

Rank: 9Rank: 9Rank: 9

积分
0
发表于 2022-9-27 19:10:02 | 显示全部楼层
太好啦&萬分感謝版主的無私發佈分享%
回复 支持 反对

使用道具 举报

0

主题

1518

帖子

4368

积分

4K家园VIP

Rank: 9Rank: 9Rank: 9

积分
4368
发表于 2022-9-28 01:27:45 | 显示全部楼层
哈哈,我只看看不说话
回复 支持 反对

使用道具 举报

0

主题

1410

帖子

4244

积分

4K家园VIP

Rank: 9Rank: 9Rank: 9

积分
4244
发表于 2022-9-28 01:48:03 | 显示全部楼层
这个资源我记得是一套的,楼主还有没有
回复 支持 反对

使用道具 举报

1

主题

1409

帖子

4245

积分

4K家园VIP

Rank: 9Rank: 9Rank: 9

积分
4245
发表于 2022-9-28 06:31:12 来自手机 | 显示全部楼层
这个资源我记得是一套的,楼主还有没有
回复 支持 反对

使用道具 举报

2

主题

1390

帖子

3984

积分

4K家园VIP

Rank: 9Rank: 9Rank: 9

积分
3984
发表于 2022-9-28 07:29:14 | 显示全部楼层
垃圾内容,路过为证。
回复 支持 反对

使用道具 举报

主题

帖子

813

积分

新手上路

Rank: 1

积分
813
发表于 2022-9-28 08:07:38 | 显示全部楼层
谢谢分享!
回复

使用道具 举报

主题

帖子

1150

积分

注册会员

Rank: 2

积分
1150
发表于 2022-9-28 12:59:40 来自手机 | 显示全部楼层
下载看看
回复

使用道具 举报

主题

帖子

24

积分

新手上路

Rank: 1

积分
24
发表于 2022-9-28 15:16:48 | 显示全部楼层
感谢分享~~~~~~
回复

使用道具 举报

您需要登录后才可以回帖 登录 | 立即注册

本版积分规则

精彩图文
Archiver|手机版|TAG|Sitemap|新帖|专题|联系我们:邮箱: 4kjia.com@gmail.com   

4k家园   ©2019