[4K电影] 第一滴血 / First Blood (1982) 4K高清版本下载

[复制链接]

主题

帖子

0

积分

超级版主

Rank: 8Rank: 8

积分
0
 楼主| 发表于 2022-9-29 11:08:25 | 显示全部楼层 |阅读模式
QQ图片20220929110203_副本.png

◎标  题 第一滴血
◎译  名 兰博 / Rambo: First Blood
◎片  名 First Blood
◎年  代 1982
◎产  地 美国
◎类  别 剧情 / 动作 / 冒险
◎语  言 英语
◎上映日期 1982-10-22
◎IMDb评分 7.7/10 from 251486 users 更新 : 2022-09-26
◎IMDb链接 https://www.imdb.com/title/tt0083944/
◎豆瓣评分 8.3/10 from 85978 users 更新 : 2022-09-29
◎豆瓣链接 https://movie.douban.com/subject/1294323/
◎片  长 93分钟
◎导  演 特德·科特切夫 Ted Kotcheff
◎编  剧 西尔维斯特·史泰龙 Sylvester Stallone / 迈克尔·科佐尔 Michael Kozoll
◎演  员 西尔维斯特·史泰龙 Sylvester Stallone
       理查德·克里纳 Richard Crenna
       布莱恩·丹内利 Brian Dennehy
       比尔·麦金尼 Bill McKinney
       杰克·斯塔雷特 Jack Starrett
       克雷格·休斯顿 Craig Huston
       查尔斯·A·坦伯罗 Charles A. Tamburro


◎简  介


  退伍军人兰博(西尔维斯特•史泰龙Sylvester Stallone 饰)从越南回国,他回到已显得陌生的原居小镇,当地警长(布莱恩•丹内利 Brian Dennehy 饰)看到这个退伍军人的第一眼起,就开始对兰博百般挑剔,甚至将他带回警局肆意侮辱,不堪忍受责打的兰博袭警之后逃跑。警长召集大批警察展开对兰博的追捕,兰博逃至荒山野林之中,不断用自己在越战中掌握的游击战术对警察展开反击,他抢劫了一辆武器运输车返回小镇烧毁了商店,法律和武器都不能阻止兰博了。兰博在越战时的长官上校(理查德•克里纳 Richard Crenna 饰)出现,劝说兰博放下枪械,愤懑已久的兰博吼出了自己的困惑与不甘……

Video
ID : 1
Format : HEVC
Format/Info : High Efficiency Video Coding
Format profile : Main 10@L5@High
HDR format : Dolby Vision, Version 1.0, dvhe.05.06, BL+RPU
Codec ID : V_MPEGH/ISO/HEVC
Duration : 1 h 33 min
Bit rate : 24.3 Mb/s
Width : 3 836 pixels
Height : 1 632 pixels
Display aspect ratio : 2.35:1
Frame rate mode : Constant
Frame rate : 24.000 FPS
Color space : YUV
Chroma subsampling : 4:2:0
Bit depth : 10 bits
Bits/(Pixel*Frame) : 0.162
Stream size : 15.9 GiB (86%)
Language : English
Default : Yes
Forced : No

Audio #1
ID : 2
Format : DTS XLL
Format/Info : Digital Theater Systems
Commercial name : DTS-HD Master Audio
Codec ID : A_DTS
Duration : 1 h 33 min
Bit rate mode : Variable
Bit rate : 3 407 kb/s
Channel(s) : 6 channels
Channel layout : C L R Ls Rs LFE
Sampling rate : 48.0 kHz
Frame rate : 93.750 FPS (512 SPF)
Bit depth : 24 bits
Compression mode : Lossless
Stream size : 2.22 GiB (12%)
Title : DTS-HD MA 5.1
Language : English
Default : Yes
Forced : No

Audio #2
ID : 3
Format : AC-3
Format/Info : Audio Coding 3
Commercial name : Dolby Digital
Codec ID : A_AC3
Duration : 1 h 33 min
Bit rate mode : Constant
Bit rate : 384 kb/s
Channel(s) : 6 channels
Channel layout : L R C LFE Ls Rs
Sampling rate : 48.0 kHz
Frame rate : 31.250 FPS (1536 SPF)
Compression mode : Lossy
Stream size : 257 MiB (1%)
Language : English
Service kind : Complete Main
Default : Yes
Forced : No

Text #1
ID : 4
Format : UTF-8
Codec ID : S_TEXT/UTF8
Codec ID/Info : UTF-8 Plain Text
Duration : 1 h 30 min
Bit rate : 32 b/s
Frame rate : 0.112 FPS
Count of elements : 608
Stream size : 21.4 KiB (0%)
Language : English
Default : Yes
Forced : No

Text #2
ID : 5
Format : UTF-8
Codec ID : S_TEXT/UTF8
Codec ID/Info : UTF-8 Plain Text
Duration : 1 h 30 min
Bit rate : 32 b/s
Frame rate : 0.112 FPS
Count of elements : 608
Stream size : 21.6 KiB (0%)
Title : SDH
Language : English
Default : No
Forced : No

Text #3
ID : 6
Format : UTF-8
Codec ID : S_TEXT/UTF8
Codec ID/Info : UTF-8 Plain Text
Duration : 1 h 32 min
Bit rate : 60 b/s
Frame rate : 0.174 FPS
Count of elements : 966
Stream size : 40.9 KiB (0%)
Language : Arabic
Default : No
Forced : No

Text #4
ID : 7
Format : UTF-8
Codec ID : S_TEXT/UTF8
Codec ID/Info : UTF-8 Plain Text
Duration : 1 h 30 min
Bit rate : 27 b/s
Frame rate : 0.088 FPS
Count of elements : 479
Stream size : 18.1 KiB (0%)
Title : Denmark
Language : Danish
Default : No
Forced : No

Text #5
ID : 8
Format : UTF-8
Codec ID : S_TEXT/UTF8
Codec ID/Info : UTF-8 Plain Text
Duration : 1 h 32 min
Bit rate : 33 b/s
Frame rate : 0.120 FPS
Count of elements : 664
Stream size : 22.8 KiB (0%)
Language : Spanish
Default : No
Forced : No

Text #6
ID : 9
Format : UTF-8
Codec ID : S_TEXT/UTF8
Codec ID/Info : UTF-8 Plain Text
Duration : 1 h 28 min
Bit rate : 40 b/s
Frame rate : 0.174 FPS
Count of elements : 924
Stream size : 26.1 KiB (0%)
Title : Latin America
Language : Spanish
Default : No
Forced : No

Text #7
ID : 10
Format : UTF-8
Codec ID : S_TEXT/UTF8
Codec ID/Info : UTF-8 Plain Text
Duration : 1 h 32 min
Bit rate : 28 b/s
Frame rate : 0.087 FPS
Count of elements : 485
Stream size : 19.3 KiB (0%)
Language : Finnish
Default : No
Forced : No

Text #8
ID : 11
Format : UTF-8
Codec ID : S_TEXT/UTF8
Codec ID/Info : UTF-8 Plain Text
Duration : 1 h 32 min
Bit rate : 29 b/s
Frame rate : 0.122 FPS
Count of elements : 678
Stream size : 19.9 KiB (0%)
Language : French
Default : No
Forced : No

Text #9
ID : 12
Format : UTF-8
Codec ID : S_TEXT/UTF8
Codec ID/Info : UTF-8 Plain Text
Duration : 1 h 32 min
Bit rate : 33 b/s
Frame rate : 0.116 FPS
Count of elements : 647
Stream size : 22.5 KiB (0%)
Language : Italian
Default : No
Forced : No

Text #10
ID : 13
Format : UTF-8
Codec ID : S_TEXT/UTF8
Codec ID/Info : UTF-8 Plain Text
Duration : 1 h 30 min
Bit rate : 26 b/s
Frame rate : 0.088 FPS
Count of elements : 477
Stream size : 17.6 KiB (0%)
Title : Norway
Language : Norwegian Bokmal
Default : No
Forced : No

Text #11
ID : 14
Format : UTF-8
Codec ID : S_TEXT/UTF8
Codec ID/Info : UTF-8 Plain Text
Duration : 1 h 32 min
Bit rate : 32 b/s
Frame rate : 0.114 FPS
Count of elements : 631
Stream size : 21.8 KiB (0%)
Language : Dutch
Default : No
Forced : No

Text #12
ID : 15
Format : UTF-8
Codec ID : S_TEXT/UTF8
Codec ID/Info : UTF-8 Plain Text
Duration : 1 h 28 min
Bit rate : 42 b/s
Frame rate : 0.143 FPS
Count of elements : 757
Stream size : 27.7 KiB (0%)
Title : Brazil
Language : Portuguese
Default : No
Forced : No

Text #13
ID : 16
Format : UTF-8
Codec ID : S_TEXT/UTF8
Codec ID/Info : UTF-8 Plain Text
Duration : 1 h 32 min
Bit rate : 26 b/s
Frame rate : 0.087 FPS
Count of elements : 481
Stream size : 18.1 KiB (0%)
Title : Sweden
Language : Swedish
Default : No
Forced : No

Text #14
ID : 17
Format : PGS
Muxing mode : zlib
Codec ID : S_HDMV/PGS
Codec ID/Info : Picture based subtitle format used on BDs/HD-DVDs
Duration : 1 h 30 min
Bit rate : 16.9 kb/s
Frame rate : 0.224 FPS
Count of elements : 1216
Stream size : 11.0 MiB (0%)
Language : English
Default : No
Forced : No

Text #15
ID : 18
Format : PGS
Muxing mode : zlib
Codec ID : S_HDMV/PGS
Codec ID/Info : Picture based subtitle format used on BDs/HD-DVDs
Duration : 1 h 32 min
Bit rate : 14.5 kb/s
Frame rate : 0.244 FPS
Count of elements : 1354
Stream size : 9.59 MiB (0%)
Language : French
Default : No
Forced : No

Text #16
ID : 19
Format : PGS
Muxing mode : zlib
Codec ID : S_HDMV/PGS
Codec ID/Info : Picture based subtitle format used on BDs/HD-DVDs
Duration : 1 h 28 min
Bit rate : 20.0 kb/s
Frame rate : 0.260 FPS
Count of elements : 1374
Stream size : 12.6 MiB (0%)
Language : German
Default : No
Forced : No

Text #17
ID : 20
Format : PGS
Muxing mode : zlib
Codec ID : S_HDMV/PGS
Codec ID/Info : Picture based subtitle format used on BDs/HD-DVDs
Duration : 1 h 32 min
Bit rate : 16.7 kb/s
Frame rate : 0.226 FPS
Count of elements : 1256
Stream size : 11.1 MiB (0%)
Language : Italian
Default : No
Forced : No

Menu
00:00:00.000 : en:Chapter 01
00:10:13.167 : en:Chapter 02
00:20:49.208 : en:Chapter 03
00:30:31.417 : en:Chapter 04
00:38:40.833 : en:Chapter 05
00:47:38.625 : en:Chapter 06
00:56:32.708 : en:Chapter 07
01:06:07.125 : en:Chapter 08
01:16:08.583 : en:Chapter 09
01:24:46.167 : en:Chapter 10


为了更好体验下载、推荐使用qBittorrent、uTorrent、BitComet等下载软件,有条件的推荐115或会员下载软件!

下载地址:


游客,如果您要查看本帖隐藏内容请回复

游客,如果您要查看本帖隐藏内容请回复






上一篇:水妖 / Nix (2022) 4K高清版本下载
下一篇:我最好的朋友会驱魔[简繁中字] (2022) 4K高清版本下载
回复

使用道具 举报

1

主题

1357

帖子

4088

积分

4K家园VIP

Rank: 9Rank: 9Rank: 9

积分
4088
发表于 2022-9-29 11:08:30 | 显示全部楼层
你们要是有4K资源记得分享,别小气
回复 支持 反对

使用道具 举报

主题

帖子

0

积分

4K家园VIP

Rank: 9Rank: 9Rank: 9

积分
0
发表于 2022-9-29 11:47:18 | 显示全部楼层
太好啦&萬分感謝版主的無私發佈分享%
回复 支持 反对

使用道具 举报

主题

帖子

0

积分

新手上路

Rank: 1

积分
0
发表于 2022-9-29 13:00:01 | 显示全部楼层
感謝版主的發佈分享
回复 支持 反对

使用道具 举报

0

主题

1624

帖子

4475

积分

4K家园VIP

Rank: 9Rank: 9Rank: 9

积分
4475
发表于 2022-9-30 06:35:19 来自手机 | 显示全部楼层
无论是不是沙发都得回复下
回复 支持 反对

使用道具 举报

3

主题

1524

帖子

4426

积分

4K家园VIP

Rank: 9Rank: 9Rank: 9

积分
4426
发表于 2022-10-1 09:34:26 来自手机 | 显示全部楼层
4K家园不错,希望这种资源越多越好
回复 支持 反对

使用道具 举报

59

主题

1613

帖子

4632

积分

4K家园VIP

Rank: 9Rank: 9Rank: 9

积分
4632
发表于 2022-10-2 09:36:45 | 显示全部楼层
边撸边过
回复 支持 反对

使用道具 举报

3

主题

1838

帖子

5062

积分

高级会员

Rank: 3Rank: 3

积分
5062
发表于 2022-10-3 08:31:17 来自手机 | 显示全部楼层
嘘,低调。
回复 支持 反对

使用道具 举报

头像被屏蔽

主题

帖子

1017

积分

禁止访问

积分
1017
发表于 2022-10-8 09:31:00 | 显示全部楼层
提示: 作者被禁止或删除 内容自动屏蔽
回复

使用道具 举报

主题

帖子

10

积分

新手上路

Rank: 1

积分
10
发表于 2022-10-10 22:46:04 | 显示全部楼层
谢谢分享
回复

使用道具 举报

您需要登录后才可以回帖 登录 | 立即注册

本版积分规则

精彩图文
Archiver|手机版|TAG|Sitemap|新帖|专题|联系我们:邮箱: 4kjia.com@gmail.com   

4k家园   ©2019