[4K美女视频] 2019 首尔车展本田Hong-1型摩托车)-洪智妍-2 [2160P/MKV/152MB]

  [复制链接]

主题

帖子

0

积分

超级版主

Rank: 8Rank: 8

积分
0
 楼主| 发表于 2022-9-29 12:24:56 | 显示全部楼层 |阅读模式
【www.4kjia.com】2019 首尔车展本田Hong-1型摩托车)-洪智妍-2.mp4_20220929_121621..jpg 【www.4kjia.com】2019 首尔车展本田Hong-1型摩托车)-洪智妍-2.mp4_20220929_121628..jpg 【www.4kjia.com】2019 首尔车展本田Hong-1型摩托车)-洪智妍-2.mp4_20220929_121739..jpg 【www.4kjia.com】2019 首尔车展本田Hong-1型摩托车)-洪智妍-2.mp4_20220929_121716..jpg 【www.4kjia.com】2019 首尔车展本田Hong-1型摩托车)-洪智妍-2.mp4_20220929_121728..jpg 【www.4kjia.com】2019 首尔车展本田Hong-1型摩托车)-洪智妍-2.mp4_20220929_121757..jpg
Video
ID                             : 1
Format                         : AVC
Format/Info                    : Advanced Video Codec
Format profile                 : High@L5.1
Format settings                : CABAC / 3 Ref Frames
Format settings, CABAC         : Yes
Format settings, Reference fra : 3 frames
Codec ID                       : avc1
Codec ID/Info                  : Advanced Video Coding
Duration                       : 1 min 48 s
Bit rate                       : 11.6 Mb/s
Width                          : 2 160 pixels
Height                         : 3 840 pixels
Display aspect ratio           : 0.562
Frame rate mode                : Constant
Frame rate                     : 29.970 (29970/1000) FPS
Color space                    : YUV
Chroma subsampling             : 4:2:0
Bit depth                      : 8 bits
Scan type                      : Progressive
Bits/(Pixel*Frame)             : 0.047
Stream size                    : 150 MiB (98%)
Color range                    : Limited
Color primaries                : BT.709
Transfer characteristics       : BT.709
Matrix coefficients            : BT.709
Codec configuration box        : avcC

Audio
ID                             : 2
Format                         : AAC LC
Format/Info                    : Advanced Audio Codec Low Complexity
Codec ID                       : mp4a-40-2
Duration                       : 1 min 48 s
Bit rate mode                  : Constant
Bit rate                       : 192 kb/s
Channel(s)                     : 2 channels
Channel layout                 : L R
Sampling rate                  : 48.0 kHz
Frame rate                     : 46.875 FPS (1024 SPF)
Compression mode               : Lossy
Stream size                    : 2.49 MiB (2%)
Default                        : Yes
Alternate group                : 1
下载地址:

游客,如果您要查看本帖隐藏内容请回复




上一篇:2018 韩国斯波克斯健身NABBA经典S小姐-S健身小姐颁奖
下一篇:2019 首尔车展本田摩托车模型-余达妍 [2160P/MKV/151MB]
回复

使用道具 举报

1

主题

1436

帖子

4108

积分

中级会员

Rank: 4

积分
4108
发表于 2022-9-29 12:25:12 | 显示全部楼层
我了个去,顶了
回复 支持 反对

使用道具 举报

主题

帖子

0

积分

4K家园VIP

Rank: 9Rank: 9Rank: 9

积分
0
QQ
发表于 2022-9-29 13:50:04 | 显示全部楼层
没速度下载不了啊。
回复 支持 反对

使用道具 举报

1

主题

1320

帖子

3978

积分

4K家园VIP

Rank: 9Rank: 9Rank: 9

积分
3978
发表于 2022-9-29 16:53:09 来自手机 | 显示全部楼层
路过 帮顶 嘿嘿
回复 支持 反对

使用道具 举报

主题

帖子

15

积分

新手上路

Rank: 1

积分
15
发表于 2022-9-30 00:48:06 | 显示全部楼层
帮顶,试试能不能下
回复 支持 反对

使用道具 举报

1

主题

1462

帖子

4196

积分

4K家园VIP

Rank: 9Rank: 9Rank: 9

积分
4196
发表于 2022-9-30 02:09:12 | 显示全部楼层
感谢推荐,确实不错
回复 支持 反对

使用道具 举报

2

主题

1443

帖子

4353

积分

4K家园VIP

Rank: 9Rank: 9Rank: 9

积分
4353
发表于 2022-9-30 23:42:17 | 显示全部楼层
楼主呀,,,您太有才了。。。
回复 支持 反对

使用道具 举报

50

主题

1585

帖子

4591

积分

4K家园VIP

Rank: 9Rank: 9Rank: 9

积分
4591
发表于 2022-10-1 02:11:57 | 显示全部楼层
无论是不是沙发都得回复下
回复 支持 反对

使用道具 举报

头像被屏蔽

主题

帖子

1017

积分

禁止访问

积分
1017
发表于 2022-10-8 09:30:38 | 显示全部楼层
提示: 作者被禁止或删除 内容自动屏蔽
回复

使用道具 举报

主题

帖子

21

积分

新手上路

Rank: 1

积分
21
发表于 2022-10-11 11:10:24 | 显示全部楼层
非常好的mv
回复 支持 反对

使用道具 举报

您需要登录后才可以回帖 登录 | 立即注册

本版积分规则

精彩图文
Archiver|手机版|TAG|Sitemap|新帖|专题|联系我们:邮箱: 4kjia.com@gmail.com   

4k家园   ©2019