[4K电影] 我最好的朋友会驱魔[简繁中字] (2022) 4K高清版本下载

[复制链接]

主题

帖子

0

积分

超级版主

Rank: 8Rank: 8

积分
0
 楼主| 发表于 2022-9-30 13:15:14 | 显示全部楼层 |阅读模式
QQ图片20220930130235_副本.png

◎标  题 我最好的朋友会驱魔
◎译  名 我最好的朋友是驱魔人 / 我的挚友的驱魔 / 我的闺蜜需要驱魔 / 我最好朋友的驱魔
◎片  名 My Best Friend's Exorcism
◎年  代 2022
◎产  地 美国
◎类  别 恐怖
◎语  言 英语
◎上映日期 2022-09-30(美国网络)
◎IMDb评分 0/10 from 0 users
◎IMDb链接 https://www.imdb.com/title/tt7830806/
◎豆瓣评分 0/10 from 0 users
◎豆瓣链接 https://movie.douban.com/subject/35457523/
◎片  长 96分钟
◎导  演 达蒙·托马斯 Damon Thomas
◎编  剧 珍娜·拉米亚 Jenna Lamia / 格雷迪·亨德里克斯 Grady Hendrix
◎演  员 阿米尔·米勒 Amiah Miller
       艾尔西·费舍尔 Elsie Fisher
       凯西·昂 Cathy Ang
       克莱顿·约翰逊 Clayton Royal Johnson
       克里斯·劳威尔 Chris Lowell
       艾琳·欧贝 Erin Ownbey
       迈克尔·福斯特 Michael Foster
       辛西娅·埃文斯 Cynthia Evans
       艾希礼·勒孔特·坎贝尔 Ashley LeConte Campbell
       内森·安德森 Nathan Anderson

◎简  介

  故事发生在80年代,从四年级开始就是挚友的艾比与格雷琴,对于超自然事物有着高度重合的爱好。平静祥和的友谊却在一次裸泳事件后发生了改变,格雷琴开始变得喜怒无常。有格雷琴在的地方,不断有怪异的事发生…… 随着奇怪的巧合和离奇的行为逐渐堆积,艾比意识到了一种可能:她的挚友格蕾琴的体内,住着一个恶魔。 艾比不会让任何人或任何事情挡在她和她最好的朋友之间。在一些不太靠谱的盟友的帮助下,艾比开始寻求拯救格雷琴的办法。 两位女孩的友谊足以打败格雷琴体内的恶魔吗?

Video
ID : 1
Format : HEVC
Format/Info : High Efficiency Video Coding
Format profile : Main 10@L5@Main
HDR format : SMPTE ST 2094 App 4, Version 1, HDR10+ Profile B compatible
Codec ID : V_MPEGH/ISO/HEVC
Duration : 1 h 37 min
Bit rate : 14.3 Mb/s
Width : 3 840 pixels
Height : 1 744 pixels
Display aspect ratio : 2.2:1
Frame rate mode : Constant
Frame rate : 23.976 (24000/1001/189150) FPS
Color space : YUV
Chroma subsampling : 4:2:0
Bit depth : 10 bits
Bits/(Pixel*Frame) : 0.089
Stream size : 9.71 GiB (96%)
Language : English
Default : Yes
Forced : No
Color range : Limited
Color primaries : BT.2020
Transfer characteristics : PQ
Matrix coefficients : BT.2020 non-constant
Mastering display color primaries : Display P3
Mastering display luminance : min: 0.0001 cd/m2, max: 1000 cd/m2
Maximum Content Light Level : 1035 cd/m2
Maximum Frame-Average Light Level : 373 cd/m2

Audio
ID : 2
Format : E-AC-3
Format/Info : Enhanced AC-3
Commercial name : Dolby Digital Plus
Codec ID : A_EAC3
Duration : 1 h 37 min
Bit rate mode : Constant
Bit rate : 640 kb/s
Channel(s) : 6 channels
Channel layout : L R C LFE Ls Rs
Sampling rate : 48.0 kHz
Frame rate : 31.250 FPS (1536 SPF)
Compression mode : Lossy
Stream size : 446 MiB (4%)
Language : English
Service kind : Complete Main
Default : Yes
Forced : No

Text #1
ID : 3
Format : UTF-8
Codec ID : S_TEXT/UTF8
Codec ID/Info : UTF-8 Plain Text
Duration : 1 h 36 min
Bit rate : 66 b/s
Frame rate : 0.294 FPS
Count of elements : 1691
Stream size : 46.8 KiB (0%)
Title : SDH
Language : English
Default : No
Forced : No

Text #2
ID : 4
Format : UTF-8
Codec ID : S_TEXT/UTF8
Codec ID/Info : UTF-8 Plain Text
Duration : 1 h 35 min
Bit rate : 55 b/s
Frame rate : 0.245 FPS
Count of elements : 1405
Stream size : 38.8 KiB (0%)
Language : English
Default : No
Forced : No

Text #3
ID : 5
Format : UTF-8
Codec ID : S_TEXT/UTF8
Codec ID/Info : UTF-8 Plain Text
Duration : 1 h 35 min
Bit rate : 93 b/s
Frame rate : 0.216 FPS
Count of elements : 1241
Stream size : 65.5 KiB (0%)
Title : Egyptian
Language : Arabic
Default : No
Forced : No

Text #4
ID : 6
Format : UTF-8
Codec ID : S_TEXT/UTF8
Codec ID/Info : UTF-8 Plain Text
Duration : 1 h 35 min
Bit rate : 51 b/s
Frame rate : 0.213 FPS
Count of elements : 1228
Stream size : 35.9 KiB (0%)
Language : Czech
Default : No
Forced : No

Text #5
ID : 7
Format : UTF-8
Codec ID : S_TEXT/UTF8
Codec ID/Info : UTF-8 Plain Text
Duration : 1 h 35 min
Bit rate : 48 b/s
Frame rate : 0.214 FPS
Count of elements : 1230
Stream size : 33.9 KiB (0%)
Language : Danish
Default : No
Forced : No

Text #6
ID : 8
Format : UTF-8
Codec ID : S_TEXT/UTF8
Codec ID/Info : UTF-8 Plain Text
Duration : 1 h 35 min
Bit rate : 49 b/s
Frame rate : 0.213 FPS
Count of elements : 1223
Stream size : 34.8 KiB (0%)
Language : German
Default : No
Forced : No

Text #7
ID : 9
Format : UTF-8
Codec ID : S_TEXT/UTF8
Codec ID/Info : UTF-8 Plain Text
Duration : 1 h 35 min
Bit rate : 86 b/s
Frame rate : 0.214 FPS
Count of elements : 1234
Stream size : 60.5 KiB (0%)
Language : Greek
Default : No
Forced : No

Text #8
ID : 10
Format : UTF-8
Codec ID : S_TEXT/UTF8
Codec ID/Info : UTF-8 Plain Text
Duration : 1 h 35 min
Bit rate : 48 b/s
Frame rate : 0.214 FPS
Count of elements : 1232
Stream size : 34.1 KiB (0%)
Language : Spanish
Default : No
Forced : No

Text #9
ID : 11
Format : UTF-8
Codec ID : S_TEXT/UTF8
Codec ID/Info : UTF-8 Plain Text
Duration : 1 h 35 min
Bit rate : 49 b/s
Frame rate : 0.215 FPS
Count of elements : 1240
Stream size : 34.6 KiB (0%)
Title : Latin American
Language : Spanish
Default : No
Forced : No

Text #10
ID : 12
Format : UTF-8
Codec ID : S_TEXT/UTF8
Codec ID/Info : UTF-8 Plain Text
Duration : 1 h 35 min
Bit rate : 48 b/s
Frame rate : 0.214 FPS
Count of elements : 1232
Stream size : 34.0 KiB (0%)
Language : Finnish
Default : No
Forced : No

Text #11
ID : 13
Format : UTF-8
Codec ID : S_TEXT/UTF8
Codec ID/Info : UTF-8 Plain Text
Duration : 1 h 35 min
Bit rate : 50 b/s
Frame rate : 0.214 FPS
Count of elements : 1230
Stream size : 35.5 KiB (0%)
Language : fil
Default : No
Forced : No

Text #12
ID : 14
Format : UTF-8
Codec ID : S_TEXT/UTF8
Codec ID/Info : UTF-8 Plain Text
Duration : 1 h 35 min
Bit rate : 48 b/s
Frame rate : 0.212 FPS
Count of elements : 1221
Stream size : 34.2 KiB (0%)
Language : French
Default : No
Forced : No

Text #13
ID : 15
Format : UTF-8
Codec ID : S_TEXT/UTF8
Codec ID/Info : UTF-8 Plain Text
Duration : 1 h 35 min
Bit rate : 81 b/s
Frame rate : 0.216 FPS
Count of elements : 1241
Stream size : 57.5 KiB (0%)
Language : Hebrew
Default : No
Forced : No

Text #14
ID : 16
Format : UTF-8
Codec ID : S_TEXT/UTF8
Codec ID/Info : UTF-8 Plain Text
Duration : 1 h 35 min
Bit rate : 122 b/s
Frame rate : 0.216 FPS
Count of elements : 1241
Stream size : 86.1 KiB (0%)
Language : Hindi
Default : No
Forced : No

Text #15
ID : 17
Format : UTF-8
Codec ID : S_TEXT/UTF8
Codec ID/Info : UTF-8 Plain Text
Duration : 1 h 35 min
Bit rate : 51 b/s
Frame rate : 0.214 FPS
Count of elements : 1233
Stream size : 36.5 KiB (0%)
Language : Hungarian
Default : No
Forced : No

Text #16
ID : 18
Format : UTF-8
Codec ID : S_TEXT/UTF8
Codec ID/Info : UTF-8 Plain Text
Duration : 1 h 35 min
Bit rate : 47 b/s
Frame rate : 0.214 FPS
Count of elements : 1234
Stream size : 33.5 KiB (0%)
Language : Indonesian
Default : No
Forced : No

Text #17
ID : 19
Format : UTF-8
Codec ID : S_TEXT/UTF8
Codec ID/Info : UTF-8 Plain Text
Duration : 1 h 35 min
Bit rate : 48 b/s
Frame rate : 0.214 FPS
Count of elements : 1234
Stream size : 33.9 KiB (0%)
Language : Italian
Default : No
Forced : No

Text #18
ID : 20
Format : UTF-8
Codec ID : S_TEXT/UTF8
Codec ID/Info : UTF-8 Plain Text
Duration : 1 h 35 min
Bit rate : 42 b/s
Frame rate : 0.201 FPS
Count of elements : 1157
Stream size : 30.2 KiB (0%)
Language : Japanese
Default : No
Forced : No

Text #19
ID : 21
Format : UTF-8
Codec ID : S_TEXT/UTF8
Codec ID/Info : UTF-8 Plain Text
Duration : 1 h 35 min
Bit rate : 54 b/s
Frame rate : 0.215 FPS
Count of elements : 1237
Stream size : 38.5 KiB (0%)
Language : Korean
Default : No
Forced : No

Text #20
ID : 22
Format : UTF-8
Codec ID : S_TEXT/UTF8
Codec ID/Info : UTF-8 Plain Text
Duration : 1 h 35 min
Bit rate : 44 b/s
Frame rate : 0.214 FPS
Count of elements : 1233
Stream size : 31.5 KiB (0%)
Language : Malay
Default : No
Forced : No

Text #21
ID : 23
Format : UTF-8
Codec ID : S_TEXT/UTF8
Codec ID/Info : UTF-8 Plain Text
Duration : 1 h 35 min
Bit rate : 46 b/s
Frame rate : 0.214 FPS
Count of elements : 1232
Stream size : 32.9 KiB (0%)
Language : Norwegian Bokmal
Default : No
Forced : No

Text #22
ID : 24
Format : UTF-8
Codec ID : S_TEXT/UTF8
Codec ID/Info : UTF-8 Plain Text
Duration : 1 h 35 min
Bit rate : 45 b/s
Frame rate : 0.199 FPS
Count of elements : 1148
Stream size : 32.0 KiB (0%)
Language : Dutch
Default : No
Forced : No

Text #23
ID : 25
Format : UTF-8
Codec ID : S_TEXT/UTF8
Codec ID/Info : UTF-8 Plain Text
Duration : 1 h 35 min
Bit rate : 45 b/s
Frame rate : 0.211 FPS
Count of elements : 1212
Stream size : 31.7 KiB (0%)
Language : Polish
Default : No
Forced : No

Text #24
ID : 26
Format : UTF-8
Codec ID : S_TEXT/UTF8
Codec ID/Info : UTF-8 Plain Text
Duration : 1 h 35 min
Bit rate : 45 b/s
Frame rate : 0.214 FPS
Count of elements : 1233
Stream size : 31.9 KiB (0%)
Language : Portuguese
Default : No
Forced : No

Text #25
ID : 27
Format : UTF-8
Codec ID : S_TEXT/UTF8
Codec ID/Info : UTF-8 Plain Text
Duration : 1 h 35 min
Bit rate : 47 b/s
Frame rate : 0.214 FPS
Count of elements : 1230
Stream size : 33.2 KiB (0%)
Title : Brazilian
Language : Portuguese
Default : No
Forced : No

Text #26
ID : 28
Format : UTF-8
Codec ID : S_TEXT/UTF8
Codec ID/Info : UTF-8 Plain Text
Duration : 1 h 35 min
Bit rate : 52 b/s
Frame rate : 0.213 FPS
Count of elements : 1228
Stream size : 36.8 KiB (0%)
Language : Romanian
Default : No
Forced : No

Text #27
ID : 29
Format : UTF-8
Codec ID : S_TEXT/UTF8
Codec ID/Info : UTF-8 Plain Text
Duration : 1 h 35 min
Bit rate : 78 b/s
Frame rate : 0.215 FPS
Count of elements : 1240
Stream size : 55.3 KiB (0%)
Language : Russian
Default : No
Forced : No

Text #28
ID : 30
Format : UTF-8
Codec ID : S_TEXT/UTF8
Codec ID/Info : UTF-8 Plain Text
Duration : 1 h 35 min
Bit rate : 44 b/s
Frame rate : 0.211 FPS
Count of elements : 1214
Stream size : 31.1 KiB (0%)
Language : Swedish
Default : No
Forced : No

Text #29
ID : 31
Format : UTF-8
Codec ID : S_TEXT/UTF8
Codec ID/Info : UTF-8 Plain Text
Duration : 1 h 35 min
Bit rate : 129 b/s
Frame rate : 0.216 FPS
Count of elements : 1241
Stream size : 91.1 KiB (0%)
Language : Tamil
Default : No
Forced : No

Text #30
ID : 32
Format : UTF-8
Codec ID : S_TEXT/UTF8
Codec ID/Info : UTF-8 Plain Text
Duration : 1 h 35 min
Bit rate : 124 b/s
Frame rate : 0.216 FPS
Count of elements : 1241
Stream size : 87.3 KiB (0%)
Language : Telugu
Default : No
Forced : No

Text #31
ID : 33
Format : UTF-8
Codec ID : S_TEXT/UTF8
Codec ID/Info : UTF-8 Plain Text
Duration : 1 h 35 min
Bit rate : 119 b/s
Frame rate : 0.216 FPS
Count of elements : 1241
Stream size : 83.9 KiB (0%)
Language : Thai
Default : No
Forced : No

Text #32
ID : 34
Format : UTF-8
Codec ID : S_TEXT/UTF8
Codec ID/Info : UTF-8 Plain Text
Duration : 1 h 35 min
Bit rate : 50 b/s
Frame rate : 0.215 FPS
Count of elements : 1236
Stream size : 35.5 KiB (0%)
Language : Turkish
Default : No
Forced : No

Text #33
ID : 35
Format : UTF-8
Codec ID : S_TEXT/UTF8
Codec ID/Info : UTF-8 Plain Text
Duration : 1 h 35 min
Bit rate : 78 b/s
Frame rate : 0.216 FPS
Count of elements : 1241
Stream size : 55.3 KiB (0%)
Title : Ukraine
Language : Ukrainian
Default : No
Forced : No

Text #34
ID : 36
Format : UTF-8
Codec ID : S_TEXT/UTF8
Codec ID/Info : UTF-8 Plain Text
Duration : 1 h 35 min
Bit rate : 62 b/s
Frame rate : 0.215 FPS
Count of elements : 1236
Stream size : 43.9 KiB (0%)
Title : Vietnam
Language : Vietnamese
Default : No
Forced : No

Text #35
ID : 37
Format : UTF-8
Codec ID : S_TEXT/UTF8
Codec ID/Info : UTF-8 Plain Text
Duration : 1 h 35 min
Bit rate : 50 b/s
Frame rate : 0.216 FPS
Count of elements : 1241
Stream size : 35.7 KiB (0%)
Title : 中文简体
Language : Chinese
Default : No
Forced : No

Text #36
ID : 38
Format : UTF-8
Codec ID : S_TEXT/UTF8
Codec ID/Info : UTF-8 Plain Text
Duration : 1 h 35 min
Bit rate : 47 b/s
Frame rate : 0.215 FPS
Count of elements : 1240
Stream size : 33.6 KiB (0%)
Title : 中文繁体
Language : Chinese
Default : No
Forced : No


为了更好体验下载、推荐使用qBittorrent、uTorrent、BitComet等下载软件,有条件的推荐115或会员下载软件!

下载地址:


游客,如果您要查看本帖隐藏内容请回复

游客,如果您要查看本帖隐藏内容请回复





上一篇:第一滴血 / First Blood (1982) 4K高清版本下载
下一篇:有史以来最棒的啤酒运送[简繁中字] (2022) 4K高清版本下载
回复

使用道具 举报

3

主题

1395

帖子

4206

积分

4K家园VIP

Rank: 9Rank: 9Rank: 9

积分
4206
发表于 2022-9-30 13:15:19 | 显示全部楼层
怎么这么大,希望我电视能看啊
回复 支持 反对

使用道具 举报

主题

帖子

0

积分

4K家园VIP

Rank: 9Rank: 9Rank: 9

积分
0
发表于 2022-9-30 18:38:03 | 显示全部楼层
太好啦&萬分感謝版主的無私發佈分享%
回复 支持 反对

使用道具 举报

195

主题

1641

帖子

4525

积分

4K家园VIP

Rank: 9Rank: 9Rank: 9

积分
4525
发表于 2022-9-30 18:48:38 | 显示全部楼层
4K版的应该更清晰吧
回复 支持 反对

使用道具 举报

主题

帖子

6

积分

新手上路

Rank: 1

积分
6
发表于 2022-10-1 02:41:15 | 显示全部楼层
楼主牛啊,谢谢楼主的分享
回复 支持 反对

使用道具 举报

3

主题

1524

帖子

4426

积分

4K家园VIP

Rank: 9Rank: 9Rank: 9

积分
4426
发表于 2022-10-1 10:01:17 | 显示全部楼层
呵呵,低调,低调!
回复 支持 反对

使用道具 举报

48

主题

1647

帖子

4754

积分

4K家园VIP

Rank: 9Rank: 9Rank: 9

积分
4754
发表于 2022-10-1 17:09:29 | 显示全部楼层
什么东西啊
回复 支持 反对

使用道具 举报

主题

帖子

18

积分

新手上路

Rank: 1

积分
18
发表于 2022-10-1 18:38:57 来自手机 | 显示全部楼层
没想到在这里可以找到!
回复 支持 反对

使用道具 举报

41

主题

1583

帖子

4525

积分

4K家园VIP

Rank: 9Rank: 9Rank: 9

积分
4525
发表于 2022-10-1 23:41:16 来自手机 | 显示全部楼层
鼎力支持!!
回复 支持 反对

使用道具 举报

头像被屏蔽

主题

帖子

1017

积分

禁止访问

积分
1017
发表于 2022-10-10 06:34:24 | 显示全部楼层
提示: 作者被禁止或删除 内容自动屏蔽
回复

使用道具 举报

您需要登录后才可以回帖 登录 | 立即注册

本版积分规则

精彩图文
Archiver|手机版|TAG|Sitemap|新帖|专题|联系我们:邮箱: 4kjia.com@gmail.com   

4k家园   ©2019