[4K电影] 女巫也疯狂2[简繁粤中字] /Hocus.Pocus (2022) 4K高清版本下载

[复制链接]

主题

帖子

0

积分

超级版主

Rank: 8Rank: 8

积分
0
 楼主| 发表于 2022-9-30 15:58:17 | 显示全部楼层 |阅读模式
本帖最后由 最爱4K哟 于 2022-10-2 21:08 编辑

QQ图片20220930155357_副本.png

◎标  题 女巫也疯狂2
◎片  名 Hocus Pocus 2
◎年  代 2022
◎产  地 美国
◎类  别 喜剧 / 爱情 / 悬疑 / 恐怖 / 奇幻
◎语  言 英语
◎上映日期 2022-09-30(美国网络)
◎IMDb评分 8.3/10 from 25 users Updated : 2022-09-30
◎IMDb链接 https://www.imdb.com/title/tt11909878/
◎豆瓣评分 0/10 from  0 from users
◎豆瓣链接 https://movie.douban.com/subject/34985171/
◎导  演 安妮·弗莱彻 Anne Fletcher
◎编  剧 珍·安吉洛 Jen D'Angelo
◎演  员 贝特·米德勒 Bette Midler
       莎拉·杰茜卡·帕克 Sarah Jessica Parker
       凯茜·纳基麦 Kathy Najimy
       道格·琼斯 Doug Jones
       惠特尼·皮克 Whitney Peak
       莉莉亚·白金汉 Lilia Buckingham
       贝莉莎·埃斯科贝多 Belissa Escobedo
       汉娜·沃丁厄姆 Hannah Waddingham
       托尼·海尔 Tony Hale
       山姆·理查森 Sam Richardson
       朱朱·布伦纳 Juju Journey Brener
       弗洛伊·格特瑞兹 Froy Gutierrez
       泰勒·佩吉·亨德森 Taylor Paige Henderson
       妮娜·琪辰 Nina Kitchen
       萨尔瓦多 Santone
       丹·芬纳蒂 Dan Finnerty
       金格·明吉 Ginger Minj
       阿纳斯塔西娅·萨尼多普洛斯·穆西斯 Anastasia Mousis Sanidopoulos
       史蒂夫·安托努奇 Steve Antonucci
       亚美利哥·普雷休蒂 Americo Presciutti
       萨尔瓦多·佩雷斯 Salvador Pérez Jr.

◎简  介

  疯狂女巫 ,经典回归。

Video
ID : 1
Format : HEVC
Format/Info : High Efficiency Video Coding
Format profile : Main 10@L5@High
HDR format : Dolby Vision, Version 1.0, dvhe.05.06, BL+RPU
Codec ID : dvhe
Codec ID/Info : High Efficiency Video Coding with Dolby Vision
Duration : 1 h 43 min
Bit rate : 16.3 Mb/s
Width : 3 840 pixels
Height : 2 160 pixels
Display aspect ratio : 16:9
Frame rate mode : Constant
Frame rate : 24.000 FPS
Color space : YUV
Chroma subsampling : 4:2:0
Bit depth : 10 bits
Bits/(Pixel*Frame) : 0.082
Stream size : 11.8 GiB (95%)
Default : Yes
Alternate group : 1
Encoded date : UTC 2022-09-30 07:13:43
Tagged date : UTC 2022-09-30 07:16:35
Color range : Full
Codec configuration box : hvcC+dvcC

Audio
ID : 2
Format : E-AC-3 JOC
Format/Info : Enhanced AC-3 with Joint Object Coding
Commercial name : Dolby Digital Plus with Dolby Atmos
Codec ID : ec-3
Duration : 1 h 43 min
Bit rate mode : Constant
Bit rate : 768 kb/s
Maximum bit rate : 811 kb/s
Channel(s) : 6 channels
Channel layout : L R C LFE Ls Rs
Sampling rate : 48.0 kHz
Frame rate : 31.250 FPS (1536 SPF)
Compression mode : Lossy
Stream size : 569 MiB (4%)
Title : English
Language : English
Service kind : Complete Main
Default : Yes
Alternate group : 1
Tagged date : UTC 2022-09-30 07:16:35
Complexity index : Not present / 16
Number of dynamic objects : 15
Bed channel count : 1 channel
Bed channel configuration : LFE

Text #1
ID : 3
Format : Timed Text
Codec ID : tx3g
Duration : 1 h 36 min
Bit rate mode : Variable
Bit rate : 102 b/s
Frame rate : 0.716 FPS
Stream size : 71.5 KiB (0%)
Title : English
Language : English
Forced : No
Encoded date : UTC 2022-09-30 07:16:32
Tagged date : UTC 2022-09-30 07:16:35

Text #2
ID : 4
Format : Timed Text
Codec ID : tx3g
Duration : 1 h 35 min
Bit rate mode : Variable
Bit rate : 90 b/s
Frame rate : 0.615 FPS
Stream size : 62.9 KiB (0%)
Title : English
Language : English
Forced : No
Encoded date : UTC 2022-09-30 07:16:32
Tagged date : UTC 2022-09-30 07:16:35

Text #3
ID : 5
Format : Timed Text
Codec ID : tx3g
Duration : 1 h 43 min
Bit rate mode : Variable
Bit rate : 70 b/s
Frame rate : 0.558 FPS
Stream size : 53.0 KiB (0%)
Title : 中文(粤语)
Language : Chinese
Forced : No
Encoded date : UTC 2022-09-30 07:16:32
Tagged date : UTC 2022-09-30 07:16:35

Text #4
ID : 6
Format : Timed Text
Codec ID : tx3g
Duration : 1 h 43 min
Bit rate mode : Variable
Bit rate : 65 b/s
Frame rate : 0.559 FPS
Stream size : 49.6 KiB (0%)
Title : 中文(简体)
Language : Chinese
Forced : No
Encoded date : UTC 2022-09-30 07:16:32
Tagged date : UTC 2022-09-30 07:16:35

Text #5
ID : 7
Format : Timed Text
Codec ID : tx3g
Duration : 1 h 43 min
Bit rate mode : Variable
Bit rate : 74 b/s
Frame rate : 0.565 FPS
Stream size : 55.8 KiB (0%)
Title : 中文(繁体)
Language : Chinese
Forced : No
Encoded date : UTC 2022-09-30 07:16:32
Tagged date : UTC 2022-09-30 07:16:35


Text #6
ID : 8
Format : Timed Text
Codec ID : tx3g
Duration : 1 h 43 min
Bit rate mode : Variable
Bit rate : 76 b/s
Frame rate : 0.556 FPS
Stream size : 57.5 KiB (0%)
Title : Czech
Language : Czech
Forced : No
Encoded date : UTC 2022-09-30 07:16:32
Tagged date : UTC 2022-09-30 07:16:35

Text #7
ID : 9
Format : Timed Text
Codec ID : tx3g
Duration : 1 h 43 min
Bit rate mode : Variable
Bit rate : 71 b/s
Frame rate : 0.552 FPS
Stream size : 53.6 KiB (0%)
Title : Danish
Language : Danish
Forced : No
Encoded date : UTC 2022-09-30 07:16:33
Tagged date : UTC 2022-09-30 07:16:35

Text #8
ID : 10
Format : Timed Text
Codec ID : tx3g
Duration : 1 h 43 min
Bit rate mode : Variable
Bit rate : 71 b/s
Frame rate : 0.550 FPS
Stream size : 54.0 KiB (0%)
Title : Dutch
Language : Dutch
Forced : No
Encoded date : UTC 2022-09-30 07:16:33
Tagged date : UTC 2022-09-30 07:16:35

Text #9
ID : 11
Format : Timed Text
Codec ID : tx3g
Duration : 1 h 43 min
Bit rate mode : Variable
Bit rate : 75 b/s
Frame rate : 0.549 FPS
Stream size : 57.1 KiB (0%)
Title : Finnish
Language : Finnish
Forced : No
Encoded date : UTC 2022-09-30 07:16:33
Tagged date : UTC 2022-09-30 07:16:35

Text #10
ID : 12
Format : Timed Text
Codec ID : tx3g
Duration : 1 h 41 min
Bit rate mode : Variable
Bit rate : 74 b/s
Frame rate : 0.523 FPS
Stream size : 55.1 KiB (0%)
Title : French
Language : French
Forced : No
Encoded date : UTC 2022-09-30 07:16:33
Tagged date : UTC 2022-09-30 07:16:35

Text #11
ID : 13
Format : Timed Text
Codec ID : tx3g
Duration : 1 h 43 min
Bit rate mode : Variable
Bit rate : 75 b/s
Frame rate : 0.556 FPS
Stream size : 56.6 KiB (0%)
Title : German
Language : German
Forced : No
Encoded date : UTC 2022-09-30 07:16:33
Tagged date : UTC 2022-09-30 07:16:35

Text #12
ID : 14
Format : Timed Text
Codec ID : tx3g
Duration : 1 h 43 min
Bit rate mode : Variable
Bit rate : 127 b/s
Frame rate : 0.556 FPS
Stream size : 96.1 KiB (0%)
Title : Greek
Language : Greek
Forced : No
Encoded date : UTC 2022-09-30 07:16:33
Tagged date : UTC 2022-09-30 07:16:35

Text #13
ID : 15
Format : Timed Text
Codec ID : tx3g
Duration : 1 h 43 min
Bit rate mode : Variable
Bit rate : 78 b/s
Frame rate : 0.556 FPS
Stream size : 59.2 KiB (0%)
Title : Hungarian
Language : Hungarian
Forced : No
Encoded date : UTC 2022-09-30 07:16:33
Tagged date : UTC 2022-09-30 07:16:35

Text #14
ID : 16
Format : Timed Text
Codec ID : tx3g
Duration : 1 h 43 min
Bit rate mode : Variable
Bit rate : 73 b/s
Frame rate : 0.556 FPS
Stream size : 55.8 KiB (0%)
Title : Italian
Language : Italian
Forced : No
Encoded date : UTC 2022-09-30 07:16:33
Tagged date : UTC 2022-09-30 07:16:35

Text #15
ID : 17
Format : Timed Text
Codec ID : tx3g
Duration : 1 h 43 min
Bit rate mode : Variable
Bit rate : 64 b/s
Frame rate : 0.488 FPS
Stream size : 48.4 KiB (0%)
Title : Japanese
Language : Japanese
Forced : No
Encoded date : UTC 2022-09-30 07:16:33
Tagged date : UTC 2022-09-30 07:16:35

Text #16
ID : 18
Format : Timed Text
Codec ID : tx3g
Duration : 1 h 43 min
Bit rate mode : Variable
Bit rate : 79 b/s
Frame rate : 0.556 FPS
Stream size : 60.3 KiB (0%)
Title : Korean
Language : Korean
Forced : No
Encoded date : UTC 2022-09-30 07:16:34
Tagged date : UTC 2022-09-30 07:16:35

Text #17
ID : 19
Format : Timed Text
Codec ID : tx3g
Duration : 1 h 43 min
Bit rate mode : Variable
Bit rate : 69 b/s
Frame rate : 0.556 FPS
Stream size : 52.6 KiB (0%)
Title : Norwegian
Language : Norwegian
Forced : No
Encoded date : UTC 2022-09-30 07:16:34
Tagged date : UTC 2022-09-30 07:16:35

Text #18
ID : 20
Format : Timed Text
Codec ID : tx3g
Duration : 1 h 43 min
Bit rate mode : Variable
Bit rate : 71 b/s
Frame rate : 0.556 FPS
Stream size : 53.9 KiB (0%)
Title : Polish
Language : Polish
Forced : No
Encoded date : UTC 2022-09-30 07:16:34
Tagged date : UTC 2022-09-30 07:16:35

Text #19
ID : 21
Format : Timed Text
Codec ID : tx3g
Duration : 1 h 43 min
Bit rate mode : Variable
Bit rate : 69 b/s
Frame rate : 0.540 FPS
Stream size : 52.1 KiB (0%)
Title : Portuguese
Language : Portuguese
Forced : No
Encoded date : UTC 2022-09-30 07:16:34
Tagged date : UTC 2022-09-30 07:16:35

Text #20
ID : 22
Format : Timed Text
Codec ID : tx3g
Duration : 1 h 43 min
Bit rate mode : Variable
Bit rate : 77 b/s
Frame rate : 0.555 FPS
Stream size : 58.4 KiB (0%)
Title : Portuguese
Language : Portuguese
Forced : No
Encoded date : UTC 2022-09-30 07:16:34
Tagged date : UTC 2022-09-30 07:16:35

Text #21
ID : 23
Format : Timed Text
Codec ID : tx3g
Duration : 1 h 43 min
Bit rate mode : Variable
Bit rate : 76 b/s
Frame rate : 0.556 FPS
Stream size : 57.9 KiB (0%)
Title : Romanian
Language : Romanian
Forced : No
Encoded date : UTC 2022-09-30 07:16:34
Tagged date : UTC 2022-09-30 07:16:35

Text #22
ID : 24
Format : Timed Text
Codec ID : tx3g
Duration : 1 h 43 min
Bit rate mode : Variable
Bit rate : 77 b/s
Frame rate : 0.554 FPS
Stream size : 58.5 KiB (0%)
Title : Slovak
Language : Slovak
Forced : No
Encoded date : UTC 2022-09-30 07:16:34
Tagged date : UTC 2022-09-30 07:16:35

Text #23
ID : 25
Format : Timed Text
Codec ID : tx3g
Duration : 1 h 43 min
Bit rate mode : Variable
Bit rate : 76 b/s
Frame rate : 0.554 FPS
Stream size : 57.4 KiB (0%)
Title : Spanish
Language : Spanish
Forced : No
Encoded date : UTC 2022-09-30 07:16:34
Tagged date : UTC 2022-09-30 07:16:35

Text #24
ID : 26
Format : Timed Text
Codec ID : tx3g
Duration : 1 h 43 min
Bit rate mode : Variable
Bit rate : 73 b/s
Frame rate : 0.554 FPS
Stream size : 55.2 KiB (0%)
Title : Spanish-EU
Language : Spanish
Forced : No
Encoded date : UTC 2022-09-30 07:16:34
Tagged date : UTC 2022-09-30 07:16:35

Text #25
ID : 27
Format : Timed Text
Codec ID : tx3g
Duration : 1 h 43 min
Bit rate mode : Variable
Bit rate : 73 b/s
Frame rate : 0.556 FPS
Stream size : 55.1 KiB (0%)
Title : Swedish
Language : Swedish
Forced : No
Encoded date : UTC 2022-09-30 07:16:35
Tagged date : UTC 2022-09-30 07:16:35

Text #26
ID : 28
Format : Timed Text
Codec ID : tx3g
Duration : 1 h 43 min
Bit rate mode : Variable
Bit rate : 79 b/s
Frame rate : 0.554 FPS
Stream size : 59.6 KiB (0%)
Title : Turkish
Language : Turkish
Forced : No
Encoded date : UTC 2022-09-30 07:16:35
Tagged date : UTC 2022-09-30 07:16:35

为了更好体验下载、推荐使用qBittorrent、uTorrent、BitComet等下载软件,有条件的推荐115或会员下载软件!

下载地址:

游客,如果您要查看本帖隐藏内容请回复

游客,如果您要查看本帖隐藏内容请回复

游客,如果您要查看本帖隐藏内容请回复

游客,如果您要查看本帖隐藏内容请回复




上一篇:恶魔讲习班 / Devil's Workshop (2022) 4K高清版本下载
下一篇:甜蜜之家 / Home Sweet Home (2020) 4K高清版本下载
回复

使用道具 举报

1

主题

1655

帖子

4607

积分

4K家园VIP

Rank: 9Rank: 9Rank: 9

积分
4607
发表于 2022-9-30 15:58:21 | 显示全部楼层
垃圾内容,路过为证。
回复 支持 反对

使用道具 举报

主题

帖子

0

积分

4K家园VIP

Rank: 9Rank: 9Rank: 9

积分
0
发表于 2022-9-30 18:36:38 | 显示全部楼层
太好啦&萬分感謝版主的無私發佈分享%
回复 支持 反对

使用道具 举报

0

主题

158

帖子

835

积分

4K家园VIP

Rank: 9Rank: 9Rank: 9

积分
835
发表于 2022-10-1 15:07:56 | 显示全部楼层
楼主辛苦了,谢谢楼主,感谢楼主分享,楼主好人一生平安!!!
回复 支持 反对

使用道具 举报

主题

帖子

18

积分

新手上路

Rank: 1

积分
18
发表于 2022-10-1 18:39:29 来自手机 | 显示全部楼层
金典
回复

使用道具 举报

4

主题

1409

帖子

4249

积分

4K家园VIP

Rank: 9Rank: 9Rank: 9

积分
4249
发表于 2022-10-3 00:41:42 | 显示全部楼层
very good
回复 支持 反对

使用道具 举报

主题

帖子

6

积分

新手上路

Rank: 1

积分
6
发表于 2022-10-3 01:22:54 来自手机 | 显示全部楼层
fff very good
回复 支持 反对

使用道具 举报

47

主题

1547

帖子

4459

积分

4K家园VIP

Rank: 9Rank: 9Rank: 9

积分
4459
发表于 2022-10-3 02:57:10 | 显示全部楼层
好,很好,非常好!
回复 支持 反对

使用道具 举报

主题

帖子

9

积分

新手上路

Rank: 1

积分
9
发表于 2022-10-3 10:24:25 来自手机 | 显示全部楼层
下载看看。
回复

使用道具 举报

1

主题

1796

帖子

4996

积分

4K家园VIP

Rank: 9Rank: 9Rank: 9

积分
4996
发表于 2022-10-3 22:56:14 | 显示全部楼层
看帖要回,回帖才健康,在踩踩,楼主辛苦了!
回复 支持 反对

使用道具 举报

您需要登录后才可以回帖 登录 | 立即注册

本版积分规则

精彩图文
Archiver|手机版|TAG|Sitemap|新帖|专题|联系我们:邮箱: 4kjia.com@gmail.com   

4k家园   ©2019