[4K电影] 维斯珀 / Vesper (2022) 4K高清版本下载

[复制链接]

主题

帖子

0

积分

超级版主

Rank: 8Rank: 8

积分
0
 楼主| 发表于 2022-9-30 16:42:36 | 显示全部楼层 |阅读模式
QQ图片20220930163557_副本.png

◎标  题 维斯珀
◎译  名 Vesper Seeds / 黄昏之种
◎片  名 Vesper
◎年  代 2022
◎产  地 立陶宛 / 法国 / 比利时
◎类  别 剧情 / 科幻 / 冒险
◎语  言 英语
◎上映日期 2022-07-03(纳沙泰尔国际奇幻影展) / 2022-09-30(美国)
◎IMDb评分 7.2/10 from 1759 users Updated : 2022-09-30
◎IMDb链接 https://www.imdb.com/title/tt20225374/
◎豆瓣评分 0/10 from  0 from users
◎豆瓣链接 https://movie.douban.com/subject/35322695/
◎片  长 113分钟
◎导  演 Kristina Buozyte Kristina Buozyte / Bruno Samper Bruno Samper
◎编  剧 Kristina Buozyte Kristina Buozyte / Bruno Samper Bruno Samper
◎演  员 拉菲拉·查普曼 Raffiella Chapman
       埃迪·马森 Eddie Marsan
       罗西·麦克尤恩 Rosy McEwen
       理查德·布雷克 Richard Brake
                   梅兰妮·盖多斯 Melanie Gaydos
                   埃德蒙·德恩 Edmund Dehn
                   马特维吉·布拉夫科夫 Matvej Buravkov
                   马吕斯·德米斯基 Marijus Demiskis
                   马克·艾蒙特 Markas Eimontas ,
                   蒂塔斯·鲁卡斯 Titas Rukas
                   马克·萨盖特 Markas Sagaitis



◎简  介


  在未来的某个时候,地球的生态系统会崩溃。一个名叫维斯珀的13岁顽强的孩子,他的父亲瘫痪了,她尽可能地为他们找食物。有一天,当她在森林里找到一个神秘的女人时,她开始希望事情会有所改变……多亏了独特的艺术理念、演员们的精彩表演和富有想象力的配乐。。。
Video
ID : 1
Format : HEVC
Format/Info : High Efficiency Video Coding
Format profile : Main 10@L5@High
HDR format : SMPTE ST 2086, HDR10 compatible
Codec ID : V_MPEGH/ISO/HEVC
Duration : 1 h 54 min
Bit rate : 14.6 Mb/s
Width : 3 836 pixels
Height : 1 596 pixels
Display aspect ratio : 2.40:1
Frame rate mode : Constant
Frame rate : 23.976 (24000/1001) FPS
Color space : YUV
Chroma subsampling : 4:2:0 (Type 2)
Bit depth : 10 bits
Bits/(Pixel*Frame) : 0.099
Stream size : 11.6 GiB (96%)
Default : Yes
Forced : No
Color range : Limited
Color primaries : BT.2020
Transfer characteristics : PQ
Matrix coefficients : BT.2020 non-constant
Mastering display color primaries : Display P3
Mastering display luminance : min: 0.0000 cd/m2, max: 1000 cd/m2
Maximum Content Light Level : 270 cd/m2
Maximum Frame-Average Light Level : 66 cd/m2

Audio
ID : 2
Format : E-AC-3
Format/Info : Enhanced AC-3
Commercial name : Dolby Digital Plus
Codec ID : A_EAC3
Duration : 1 h 54 min
Bit rate mode : Constant
Bit rate : 640 kb/s
Channel(s) : 6 channels
Channel layout : L R C LFE Ls Rs
Sampling rate : 48.0 kHz
Frame rate : 31.250 FPS (1536 SPF)
Compression mode : Lossy
Stream size : 522 MiB (4%)
Language : English
Service kind : Complete Main
Default : Yes
Forced : No

Text #1
ID : 3
Format : UTF-8
Codec ID : S_TEXT/UTF8
Codec ID/Info : UTF-8 Plain Text
Duration : 1 h 33 min
Bit rate : 22 b/s
Frame rate : 0.107 FPS
Count of elements : 601
Stream size : 15.3 KiB (0%)
Language : English
Default : Yes
Forced : No

Text #2
ID : 4
Format : UTF-8
Codec ID : S_TEXT/UTF8
Codec ID/Info : UTF-8 Plain Text
Duration : 1 h 46 min
Bit rate : 27 b/s
Frame rate : 0.139 FPS
Count of elements : 889
Stream size : 21.3 KiB (0%)
Title : SDH
Language : English
Default : No
Forced : No

Text #3
ID : 5
Format : UTF-8
Codec ID : S_TEXT/UTF8
Codec ID/Info : UTF-8 Plain Text
Duration : 1 h 52 min
Bit rate : 21 b/s
Frame rate : 0.087 FPS
Count of elements : 587
Stream size : 17.8 KiB (0%)
Language : French
Default : No
Forced : No

Text #4
ID : 6
Format : UTF-8
Codec ID : S_TEXT/UTF8
Codec ID/Info : UTF-8 Plain Text
Duration : 1 h 52 min
Bit rate : 21 b/s
Frame rate : 0.087 FPS
Count of elements : 587
Stream size : 17.8 KiB (0%)
Title : SDH
Language : French
Default : No
Forced : No

Menu
00:00:00.000 : en:Chapter 01
00:10:52.652 : en:Chapter 02
00:22:08.328 : en:Chapter 03
00:30:56.856 : en:Chapter 04
00:42:44.564 : en:Chapter 05
00:54:27.267 : en:Chapter 06
01:03:06.369 : en:Chapter 07
01:17:01.246 : en:Chapter 08
01:29:14.354 : en:Chapter 09
01:39:55.203 : en:Chapter 10
01:47:40.293 : en:Chapter 11

为了更好体验下载、推荐使用qBittorrent、uTorrent、BitComet等下载软件,有条件的推荐115或会员下载软件!

下载地址:


游客,如果您要查看本帖隐藏内容请回复

游客,如果您要查看本帖隐藏内容请回复





上一篇:甜蜜之家 / Home Sweet Home (2020) 4K高清版本下载
下一篇:毁灭 / The Razing (2022) 4K高清版本下载
回复

使用道具 举报

50

主题

1548

帖子

4448

积分

4K家园VIP

Rank: 9Rank: 9Rank: 9

积分
4448
发表于 2022-9-30 16:42:40 | 显示全部楼层
元芳你怎么看?
回复 支持 反对

使用道具 举报

主题

帖子

0

积分

4K家园VIP

Rank: 9Rank: 9Rank: 9

积分
0
发表于 2022-9-30 18:36:53 | 显示全部楼层
太好啦&萬分感謝版主的無私發佈分享%
回复 支持 反对

使用道具 举报

主题

帖子

6

积分

新手上路

Rank: 1

积分
6
发表于 2022-9-30 19:19:47 | 显示全部楼层
我用potplayer看
回复 支持 反对

使用道具 举报

主题

帖子

10

积分

新手上路

Rank: 1

积分
10
发表于 2022-9-30 22:14:55 | 显示全部楼层
66666666666666666
回复 支持 反对

使用道具 举报

主题

帖子

24

积分

新手上路

Rank: 1

积分
24
发表于 2022-9-30 22:53:32 | 显示全部楼层
国庆在家刷电影
回复 支持 反对

使用道具 举报

主题

帖子

6

积分

新手上路

Rank: 1

积分
6
发表于 2022-9-30 23:20:53 来自手机 | 显示全部楼层
djdjdjdjjddjdj
回复 支持 反对

使用道具 举报

主题

帖子

0

积分

4K家园VIP

Rank: 9Rank: 9Rank: 9

积分
0
发表于 2022-10-1 00:07:21 来自手机 | 显示全部楼层
这个字幕没有,也搜不到
回复 支持 反对

使用道具 举报

主题

帖子

15

积分

新手上路

Rank: 1

积分
15
发表于 2022-10-1 09:50:58 | 显示全部楼层
楼主发贴辛苦了,谢谢楼主分享!
回复 支持 反对

使用道具 举报

1

主题

1727

帖子

4837

积分

4K家园VIP

Rank: 9Rank: 9Rank: 9

积分
4837
发表于 2022-10-1 10:15:51 | 显示全部楼层
我了个去,顶了
回复 支持 反对

使用道具 举报

您需要登录后才可以回帖 登录 | 立即注册

本版积分规则

精彩图文
Archiver|手机版|TAG|Sitemap|新帖|专题|联系我们:邮箱: 4kjia.com@gmail.com   

4k家园   ©2019