[4K最新MV] 2022 Black Pink - 歇业 [2160P/MP4/903MB]

  [复制链接]

主题

帖子

0

积分

超级版主

Rank: 8Rank: 8

积分
0
 楼主| 发表于 2022-10-1 12:19:57 | 显示全部楼层 |阅读模式
本帖最后由 叽里呱啦 于 2022-10-1 12:28 编辑

2022 Black Pink - 歇业.mp4_20221001_120756.866.jpg 2022 Black Pink - 歇业.mp4_20221001_120817.442.jpg 2022 Black Pink - 歇业.mp4_20221001_120836.723.jpg 2022 Black Pink - 歇业.mp4_20221001_120844.234.jpg 2022 Black Pink - 歇业.mp4_20221001_120854.569.jpg 2022 Black Pink - 歇业.mp4_20221001_120904.034.jpg 2022 Black Pink - 歇业.mp4_20221001_120911.443.jpg 2022 Black Pink - 歇业.mp4_20221001_120921.418.jpg 2022 Black Pink - 歇业.mp4_20221001_120945.578.jpg 2022 Black Pink - 歇业.mp4_20221001_121005.618.jpg

General
Complete name                  : G:\最新4KMV下载\2022 Black Pink - 歇业
Format                         : MPEG-4
Format profile                 : Base Media / Version 2
Codec ID                       : mp42 (mp42/mp41)
File size                      : 903 MiB
Duration                       : 2 min 59 s
Overall bit rate mode          : Variable
Overall bit rate               : 42.3 Mb/s
Movie name                     : Encoded by Chocoberry
Album                          : Born Pink
Performer                      : BLACKPINK
Encoded date                   : UTC 2022-09-30 09:02:48
Tagged date                    : UTC 2022-09-30 09:03:18
TIM                            : 00:00:00:00
TSC                            : 24
TSZ                            : 1

Video
ID                             : 1
Format                         : AVC
Format/Info                    : Advanced Video Codec
Format profile                 : High@L5.2
Format settings                : CABAC / 1 Ref Frames
Format settings, CABAC         : Yes
Format settings, Reference fra : 1 frame
Format settings, GOP           : M=1, N=30
Codec ID                       : avc1
Codec ID/Info                  : Advanced Video Coding
Duration                       : 2 min 59 s
Bit rate                       : 41.9 Mb/s
Width                          : 3 840 pixels
Height                         : 2 160 pixels
Display aspect ratio           : 16:9
Frame rate mode                : Constant
Frame rate                     : 24.000 FPS
Color space                    : YUV
Chroma subsampling             : 4:2:0
Bit depth                      : 8 bits
Scan type                      : Progressive
Bits/(Pixel*Frame)             : 0.211
Stream size                    : 897 MiB (99%)
Language                       : English
Encoded date                   : UTC 2022-09-30 09:02:48
Tagged date                    : UTC 2022-09-30 09:02:48
Codec configuration box        : avcC

Audio
ID                             : 2
Format                         : AAC LC
Format/Info                    : Advanced Audio Codec Low Complexity
Codec ID                       : mp4a-40-2
Duration                       : 2 min 59 s
Source duration                : 2 min 59 s
Bit rate mode                  : Variable
Bit rate                       : 317 kb/s
Maximum bit rate               : 423 kb/s
Channel(s)                     : 2 channels
Channel layout                 : L R
Sampling rate                  : 48.0 kHz
Frame rate                     : 46.875 FPS (1024 SPF)
Compression mode               : Lossy
Stream size                    : 6.78 MiB (1%)
Source stream size             : 6.79 MiB (1%)
Language                       : English
Encoded date                   : UTC 2022-09-30 09:02:48
Tagged date                    : UTC 2022-09-30 09:02:48

下载地址:
顺便说下,音乐蛮有个性的,我喜欢!(值得收藏)PS:小水管制作不易,下载后请保持做种姿势,谢谢!
游客,如果您要查看本帖隐藏内容请回复

提供2010-2022年本人多年来珍藏优质[4K、8K、16K(25-120fps)] 高品质韩国(女团)MV、各种演示片、测试片等4K韩国MV“珍藏版”视频硬盘有偿拷贝或网盘分享,最新4K视频每天更新中,需要的联系本楼主!





上一篇:[4K欧美MV] 2022 Maia Reficco - Rápido y Furioso [2160P/MP4/1.44GB]
下一篇:[4K欧美MV] 2022 Emilia - 四点二十分 [2160P/MP4/1.29GB]
回复

使用道具 举报

1

主题

1404

帖子

4231

积分

4K家园VIP

Rank: 9Rank: 9Rank: 9

积分
4231
发表于 2022-10-1 12:20:06 | 显示全部楼层
没看懂
回复 支持 反对

使用道具 举报

主题

帖子

33

积分

新手上路

Rank: 1

积分
33
发表于 2022-10-1 18:26:39 | 显示全部楼层
谢谢分享谢谢分享
回复 支持 反对

使用道具 举报

48

主题

1647

帖子

4754

积分

4K家园VIP

Rank: 9Rank: 9Rank: 9

积分
4754
发表于 2022-10-2 02:00:01 | 显示全部楼层
感谢推荐,确实不错
回复 支持 反对

使用道具 举报

主题

帖子

40

积分

新手上路

Rank: 1

积分
40
发表于 2022-10-2 18:27:59 | 显示全部楼层
的地方是神鼎飞丹砂按时撒多
回复 支持 反对

使用道具 举报

57

主题

1506

帖子

4354

积分

4K家园VIP

Rank: 9Rank: 9Rank: 9

积分
4354
发表于 2022-10-3 19:25:40 来自手机 | 显示全部楼层
试试先,好用再说
回复 支持 反对

使用道具 举报

1

主题

1409

帖子

4245

积分

4K家园VIP

Rank: 9Rank: 9Rank: 9

积分
4245
发表于 2022-10-12 10:13:21 | 显示全部楼层
路过 帮顶 嘿嘿
回复 支持 反对

使用道具 举报

42

主题

1565

帖子

4507

积分

4K家园VIP

Rank: 9Rank: 9Rank: 9

积分
4507
发表于 2022-10-15 01:07:08 | 显示全部楼层
4K家园不错,希望这种资源越多越好
回复 支持 反对

使用道具 举报

主题

帖子

100

积分

新手上路

Rank: 1

积分
100
发表于 2022-10-16 18:09:48 | 显示全部楼层

感谢推荐,确实不错
回复 支持 反对

使用道具 举报

主题

帖子

13

积分

4K家园VIP

Rank: 9Rank: 9Rank: 9

积分
13
发表于 2022-10-17 00:17:44 | 显示全部楼层
DDDDDDDDDDDDDDDD
回复 支持 反对

使用道具 举报

您需要登录后才可以回帖 登录 | 立即注册

本版积分规则

精彩图文
Archiver|手机版|TAG|Sitemap|新帖|专题|联系我们:邮箱: 4kjia.com@gmail.com   

4k家园   ©2019