医院五日[简繁粤中字] (2022) / 第一季全/4K高清版本下载

[复制链接]

主题

帖子

0

积分

超级版主

Rank: 8Rank: 8

积分
0
 楼主| 发表于 2022-10-1 14:01:12 | 显示全部楼层 |阅读模式
本帖最后由 美剧小虾 于 2022-10-1 14:02 编辑

p2877850429_副本.png

◎译  名 医院五日 / 医院五天 / 纪念医院的五日
◎片  名 Five Days at Memorial
◎年  代 2022
◎产  地 美国
◎类  别 剧情
◎语  言 英语
◎上映日期 2022-08-12(美国)
◎IMDb评分8.0/10 from 4,676 users
◎IMDb链接https://www.imdb.com/title/tt3283594/
◎豆瓣评分 8.7/10 from 5,880 users
◎豆瓣链接 https://movie.douban.com/subject/35198592/
◎集  数 8
◎导  演 约翰·里德利 / John Ridley
      卡尔顿·库斯 / Carlton Cuse
◎演  员 维拉·法米加 / Vera Farmiga | 饰 Dr. Anna Pou
      切莉·琼斯 / Cherry Jones | 饰 Susan Mulderick
      罗伯特·派恩 / Robert Pine

◎简  介 

  该剧改编自Sheri Fink的同名纪实文学,讲述新奥尔良一家医院里精疲力竭的护理人员在风暴过后被迫做出令人心碎的决定的故事。
  在卡特里娜飓风席卷新奥尔良后,当时新奥尔纪念医疗中心遭受洪水泛滥、电力中断、气温急升等问题,而医务人员在这种恶劣环境下被迫作出困扰他们未来多年的选择。医院最终有40名死者,其中有些患者被认为无法活下去,故安排了安乐死。

Video
ID : 1
Format : HEVC
Format/Info : High Efficiency Video Coding
Format profile : Main 10@L5@High
HDR format : SMPTE ST 2086, HDR10 compatible
Codec ID : V_MPEGH/ISO/HEVC
Duration : 54 min 6 s
Bit rate : 24.2 Mb/s
Width : 3 840 pixels
Height : 2 160 pixels
Display aspect ratio : 16:9
Frame rate mode : Constant
Frame rate : 23.976 (24000/1001) FPS
Color space : YUV
Chroma subsampling : 4:2:0 (Type 2)
Bit depth : 10 bits
Bits/(Pixel*Frame) : 0.122
Stream size : 9.14 GiB (97%)
Default : Yes
Forced : No
Color range : Limited
Color primaries : BT.2020
Transfer characteristics : PQ
Matrix coefficients : BT.2020 non-constant
Mastering display color primaries : Display P3
Mastering display luminance : min: 0.0050 cd/m2, max: 1000 cd/m2
Maximum Content Light Level : 749 cd/m2
Maximum Frame-Average Light Level : 158 cd/m2

Audio
ID : 2
Format : E-AC-3 JOC
Format/Info : Enhanced AC-3 with Joint Object Coding
Commercial name : Dolby Digital Plus with Dolby Atmos
Codec ID : A_EAC3
Duration : 54 min 6 s
Bit rate mode : Constant
Bit rate : 768 kb/s
Channel(s) : 6 channels
Channel layout : L R C LFE Ls Rs
Sampling rate : 48.0 kHz
Frame rate : 31.250 FPS (1536 SPF)
Compression mode : Lossy
Stream size : 297 MiB (3%)
Language : English
Service kind : Complete Main
Default : Yes
Forced : No
Complexity index : 16
Number of dynamic objects : 15
Bed channel count : 1 channel
Bed channel configuration : LFE

Text #1
ID : 3
Format : UTF-8
Codec ID : S_TEXT/UTF8
Codec ID/Info : UTF-8 Plain Text
Duration : 52 min 44 s
Bit rate : 76 b/s
Frame rate : 0.240 FPS
Count of elements : 760
Stream size : 29.4 KiB (0%)
Language : English
Default : No
Forced : No

Text #2
ID : 4
Format : UTF-8
Codec ID : S_TEXT/UTF8
Codec ID/Info : UTF-8 Plain Text
Duration : 52 min 44 s
Bit rate : 82 b/s
Frame rate : 0.259 FPS
Count of elements : 819
Stream size : 31.9 KiB (0%)
Title : SDH
Language : English
Default : No
Forced : No

Text #3
ID : 5
Format : UTF-8
Codec ID : S_TEXT/UTF8
Codec ID/Info : UTF-8 Plain Text
Duration : 53 min 42 s
Bit rate : 103 b/s
Frame rate : 0.232 FPS
Count of elements : 748
Stream size : 40.7 KiB (0%)
Language : Arabic
Default : No
Forced : No

Text #4
ID : 6
Format : UTF-8
Codec ID : S_TEXT/UTF8
Codec ID/Info : UTF-8 Plain Text
Duration : 53 min 42 s
Bit rate : 102 b/s
Frame rate : 0.222 FPS
Count of elements : 717
Stream size : 40.4 KiB (0%)
Language : Bulgarian
Default : No
Forced : No

Text #5
ID : 7
Format : UTF-8
Codec ID : S_TEXT/UTF8
Codec ID/Info : UTF-8 Plain Text
Duration : 53 min 42 s
Bit rate : 62 b/s
Frame rate : 0.243 FPS
Count of elements : 783
Stream size : 24.7 KiB (0%)
Title : 中文(简体)
Language : Chinese
Default : No
Forced : No

Text #6
ID : 8
Format : UTF-8
Codec ID : S_TEXT/UTF8
Codec ID/Info : UTF-8 Plain Text
Duration : 53 min 42 s
Bit rate : 62 b/s
Frame rate : 0.244 FPS
Count of elements : 785
Stream size : 24.6 KiB (0%)
Title : 中文(繁体)
Language : Chinese
Default : No
Forced : No


Text #7
ID : 9
Format : UTF-8
Codec ID : S_TEXT/UTF8
Codec ID/Info : UTF-8 Plain Text
Duration : 53 min 42 s
Bit rate : 64 b/s
Frame rate : 0.223 FPS
Count of elements : 718
Stream size : 25.3 KiB (0%)
Language : Czech
Default : No
Forced : No

Text #8
ID : 10
Format : UTF-8
Codec ID : S_TEXT/UTF8
Codec ID/Info : UTF-8 Plain Text
Duration : 53 min 42 s
Bit rate : 67 b/s
Frame rate : 0.209 FPS
Count of elements : 675
Stream size : 26.4 KiB (0%)
Language : Danish
Default : No
Forced : No

Text #9
ID : 11
Format : UTF-8
Codec ID : S_TEXT/UTF8
Codec ID/Info : UTF-8 Plain Text
Duration : 53 min 41 s
Bit rate : 68 b/s
Frame rate : 0.225 FPS
Count of elements : 724
Stream size : 26.9 KiB (0%)
Language : German
Default : No
Forced : No

Text #10
ID : 12
Format : UTF-8
Codec ID : S_TEXT/UTF8
Codec ID/Info : UTF-8 Plain Text
Duration : 53 min 42 s
Bit rate : 121 b/s
Frame rate : 0.229 FPS
Count of elements : 738
Stream size : 47.9 KiB (0%)
Language : Greek
Default : No
Forced : No

Text #11
ID : 13
Format : UTF-8
Codec ID : S_TEXT/UTF8
Codec ID/Info : UTF-8 Plain Text
Duration : 53 min 42 s
Bit rate : 73 b/s
Frame rate : 0.241 FPS
Count of elements : 777
Stream size : 28.8 KiB (0%)
Title : Spanish (Latin America)
Language : Spanish
Default : No
Forced : No

Text #12
ID : 14
Format : UTF-8
Codec ID : S_TEXT/UTF8
Codec ID/Info : UTF-8 Plain Text
Duration : 53 min 42 s
Bit rate : 69 b/s
Frame rate : 0.236 FPS
Count of elements : 761
Stream size : 27.3 KiB (0%)
Title : Spanish (Spain)
Language : Spanish
Default : No
Forced : No

Text #13
ID : 15
Format : UTF-8
Codec ID : S_TEXT/UTF8
Codec ID/Info : UTF-8 Plain Text
Duration : 53 min 42 s
Bit rate : 66 b/s
Frame rate : 0.231 FPS
Count of elements : 743
Stream size : 26.0 KiB (0%)
Language : Estonian
Default : No
Forced : No

Text #14
ID : 16
Format : UTF-8
Codec ID : S_TEXT/UTF8
Codec ID/Info : UTF-8 Plain Text
Duration : 53 min 42 s
Bit rate : 65 b/s
Frame rate : 0.218 FPS
Count of elements : 702
Stream size : 25.8 KiB (0%)
Language : Finnish
Default : No
Forced : No

Text #15
ID : 17
Format : UTF-8
Codec ID : S_TEXT/UTF8
Codec ID/Info : UTF-8 Plain Text
Duration : 53 min 16 s
Bit rate : 63 b/s
Frame rate : 0.234 FPS
Count of elements : 747
Stream size : 24.8 KiB (0%)
Title : French (Canada)
Language : French
Default : No
Forced : No

Text #16
ID : 18
Format : UTF-8
Codec ID : S_TEXT/UTF8
Codec ID/Info : UTF-8 Plain Text
Duration : 53 min 16 s
Bit rate : 63 b/s
Frame rate : 0.233 FPS
Count of elements : 746
Stream size : 24.7 KiB (0%)
Title : French (France)
Language : French
Default : No
Forced : No

Text #17
ID : 19
Format : UTF-8
Codec ID : S_TEXT/UTF8
Codec ID/Info : UTF-8 Plain Text
Duration : 53 min 42 s
Bit rate : 97 b/s
Frame rate : 0.243 FPS
Count of elements : 782
Stream size : 38.2 KiB (0%)
Language : Hebrew
Default : No
Forced : No

Text #18
ID : 20
Format : UTF-8
Codec ID : S_TEXT/UTF8
Codec ID/Info : UTF-8 Plain Text
Duration : 53 min 42 s
Bit rate : 197 b/s
Frame rate : 0.243 FPS
Count of elements : 784
Stream size : 77.6 KiB (0%)
Language : Hindi
Default : No
Forced : No

Text #19
ID : 21
Format : UTF-8
Codec ID : S_TEXT/UTF8
Codec ID/Info : UTF-8 Plain Text
Duration : 53 min 42 s
Bit rate : 70 b/s
Frame rate : 0.240 FPS
Count of elements : 772
Stream size : 27.9 KiB (0%)
Language : Hungarian
Default : No
Forced : No

Text #20
ID : 22
Format : UTF-8
Codec ID : S_TEXT/UTF8
Codec ID/Info : UTF-8 Plain Text
Duration : 53 min 42 s
Bit rate : 73 b/s
Frame rate : 0.242 FPS
Count of elements : 781
Stream size : 28.8 KiB (0%)
Language : Indonesian
Default : No
Forced : No

Text #21
ID : 23
Format : UTF-8
Codec ID : S_TEXT/UTF8
Codec ID/Info : UTF-8 Plain Text
Duration : 53 min 41 s
Bit rate : 67 b/s
Frame rate : 0.238 FPS
Count of elements : 768
Stream size : 26.6 KiB (0%)
Language : Italian
Default : No
Forced : No

Text #22
ID : 24
Format : UTF-8
Codec ID : S_TEXT/UTF8
Codec ID/Info : UTF-8 Plain Text
Duration : 53 min 51 s
Bit rate : 54 b/s
Frame rate : 0.235 FPS
Count of elements : 759
Stream size : 21.4 KiB (0%)
Language : Japanese
Default : No
Forced : No

Text #23
ID : 25
Format : UTF-8
Codec ID : S_TEXT/UTF8
Codec ID/Info : UTF-8 Plain Text
Duration : 53 min 42 s
Bit rate : 80 b/s
Frame rate : 0.244 FPS
Count of elements : 785
Stream size : 31.5 KiB (0%)
Language : Korean
Default : No
Forced : No

Text #24
ID : 26
Format : UTF-8
Codec ID : S_TEXT/UTF8
Codec ID/Info : UTF-8 Plain Text
Duration : 53 min 42 s
Bit rate : 71 b/s
Frame rate : 0.239 FPS
Count of elements : 771
Stream size : 28.3 KiB (0%)
Language : Lithuanian
Default : No
Forced : No

Text #25
ID : 27
Format : UTF-8
Codec ID : S_TEXT/UTF8
Codec ID/Info : UTF-8 Plain Text
Duration : 53 min 42 s
Bit rate : 73 b/s
Frame rate : 0.232 FPS
Count of elements : 747
Stream size : 29.0 KiB (0%)
Language : Latvian
Default : No
Forced : No

Text #26
ID : 28
Format : UTF-8
Codec ID : S_TEXT/UTF8
Codec ID/Info : UTF-8 Plain Text
Duration : 53 min 42 s
Bit rate : 74 b/s
Frame rate : 0.242 FPS
Count of elements : 780
Stream size : 29.5 KiB (0%)
Language : Malay
Default : No
Forced : No

Text #27
ID : 29
Format : UTF-8
Codec ID : S_TEXT/UTF8
Codec ID/Info : UTF-8 Plain Text
Duration : 53 min 42 s
Bit rate : 64 b/s
Frame rate : 0.204 FPS
Count of elements : 656
Stream size : 25.2 KiB (0%)
Language : Dutch
Default : No
Forced : No

Text #28
ID : 30
Format : UTF-8
Codec ID : S_TEXT/UTF8
Codec ID/Info : UTF-8 Plain Text
Duration : 53 min 42 s
Bit rate : 61 b/s
Frame rate : 0.204 FPS
Count of elements : 658
Stream size : 24.1 KiB (0%)
Language : Norwegian
Default : No
Forced : No

Text #29
ID : 31
Format : UTF-8
Codec ID : S_TEXT/UTF8
Codec ID/Info : UTF-8 Plain Text
Duration : 53 min 42 s
Bit rate : 68 b/s
Frame rate : 0.240 FPS
Count of elements : 774
Stream size : 26.8 KiB (0%)
Language : Polish
Default : No
Forced : No

Text #30
ID : 32
Format : UTF-8
Codec ID : S_TEXT/UTF8
Codec ID/Info : UTF-8 Plain Text
Duration : 53 min 42 s
Bit rate : 69 b/s
Frame rate : 0.239 FPS
Count of elements : 769
Stream size : 27.5 KiB (0%)
Title : Portuguese
Language : Portuguese
Default : No
Forced : No

Text #31
ID : 33
Format : UTF-8
Codec ID : S_TEXT/UTF8
Codec ID/Info : UTF-8 Plain Text
Duration : 53 min 42 s
Bit rate : 67 b/s
Frame rate : 0.234 FPS
Count of elements : 754
Stream size : 26.4 KiB (0%)
Title : Portuguese (Brazil)
Language : Portuguese
Default : No
Forced : No

Text #32
ID : 34
Format : UTF-8
Codec ID : S_TEXT/UTF8
Codec ID/Info : UTF-8 Plain Text
Duration : 53 min 42 s
Bit rate : 108 b/s
Frame rate : 0.233 FPS
Count of elements : 752
Stream size : 42.8 KiB (0%)
Language : Russian
Default : No
Forced : No

Text #33
ID : 35
Format : UTF-8
Codec ID : S_TEXT/UTF8
Codec ID/Info : UTF-8 Plain Text
Duration : 53 min 42 s
Bit rate : 67 b/s
Frame rate : 0.237 FPS
Count of elements : 763
Stream size : 26.5 KiB (0%)
Language : Slovak
Default : No
Forced : No

Text #34
ID : 36
Format : UTF-8
Codec ID : S_TEXT/UTF8
Codec ID/Info : UTF-8 Plain Text
Duration : 53 min 42 s
Bit rate : 58 b/s
Frame rate : 0.212 FPS
Count of elements : 683
Stream size : 23.1 KiB (0%)
Language : Slovenian
Default : No
Forced : No

Text #35
ID : 37
Format : UTF-8
Codec ID : S_TEXT/UTF8
Codec ID/Info : UTF-8 Plain Text
Duration : 53 min 42 s
Bit rate : 70 b/s
Frame rate : 0.225 FPS
Count of elements : 725
Stream size : 27.8 KiB (0%)
Language : Swedish
Default : No
Forced : No

Text #36
ID : 38
Format : UTF-8
Codec ID : S_TEXT/UTF8
Codec ID/Info : UTF-8 Plain Text
Duration : 53 min 42 s
Bit rate : 234 b/s
Frame rate : 0.243 FPS
Count of elements : 783
Stream size : 92.2 KiB (0%)
Language : Tamil
Default : No
Forced : No

Text #37
ID : 39
Format : UTF-8
Codec ID : S_TEXT/UTF8
Codec ID/Info : UTF-8 Plain Text
Duration : 53 min 42 s
Bit rate : 211 b/s
Frame rate : 0.243 FPS
Count of elements : 783
Stream size : 83.0 KiB (0%)
Language : Telugu
Default : No
Forced : No

Text #38
ID : 40
Format : UTF-8
Codec ID : S_TEXT/UTF8
Codec ID/Info : UTF-8 Plain Text
Duration : 53 min 42 s
Bit rate : 182 b/s
Frame rate : 0.243 FPS
Count of elements : 783
Stream size : 71.9 KiB (0%)
Language : Thai
Default : No
Forced : No

Text #39
ID : 41
Format : UTF-8
Codec ID : S_TEXT/UTF8
Codec ID/Info : UTF-8 Plain Text
Duration : 53 min 42 s
Bit rate : 72 b/s
Frame rate : 0.237 FPS
Count of elements : 763
Stream size : 28.6 KiB (0%)
Language : Turkish
Default : No
Forced : No

Text #40
ID : 42
Format : UTF-8
Codec ID : S_TEXT/UTF8
Codec ID/Info : UTF-8 Plain Text
Duration : 53 min 42 s
Bit rate : 110 b/s
Frame rate : 0.243 FPS
Count of elements : 783
Stream size : 43.6 KiB (0%)
Language : Ukrainian
Default : No
Forced : No

Text #41
ID : 43
Format : UTF-8
Codec ID : S_TEXT/UTF8
Codec ID/Info : UTF-8 Plain Text
Duration : 53 min 42 s
Bit rate : 97 b/s
Frame rate : 0.243 FPS
Count of elements : 783
Stream size : 38.4 KiB (0%)
Language : Vietnamese
Default : No
Forced : No

Text #42
ID : 44
Format : UTF-8
Codec ID : S_TEXT/UTF8
Codec ID/Info : UTF-8 Plain Text
Duration : 53 min 42 s
Bit rate : 61 b/s
Frame rate : 0.244 FPS
Count of elements : 785
Stream size : 24.1 KiB (0%)
Title : 中文(粤语)
Language : Chinese
Default : No
Forced : No

下载地址:

游客,如果您要查看本帖隐藏内容请回复

游客,如果您要查看本帖隐藏内容请回复

游客,如果您要查看本帖隐藏内容请回复

游客,如果您要查看本帖隐藏内容请回复

游客,如果您要查看本帖隐藏内容请回复




上一篇:泰森传奇 / Mike (2022) / 第一季全/4K高清版本下载
下一篇:怪奇物语 [简繁中字] (2022) / 第四季全/4K高清版本下载
回复

使用道具 举报

2

主题

1454

帖子

4219

积分

4K家园VIP

Rank: 9Rank: 9Rank: 9

积分
4219
发表于 2022-10-1 14:13:48 | 显示全部楼层
介是神马?!!
回复 支持 反对

使用道具 举报

0

主题

323

帖子

1920

积分

4K家园VIP

Rank: 9Rank: 9Rank: 9

积分
1920
QQ
发表于 2022-10-1 15:48:34 | 显示全部楼层
楼主辛苦了,谢谢楼主,感谢楼主分享,楼主好人一生平安!!!
回复 支持 反对

使用道具 举报

40

主题

1578

帖子

4532

积分

4K家园VIP

Rank: 9Rank: 9Rank: 9

积分
4532
发表于 2022-10-2 23:09:48 | 显示全部楼层
专业抢沙发的!哈哈
回复 支持 反对

使用道具 举报

1

主题

1320

帖子

3978

积分

4K家园VIP

Rank: 9Rank: 9Rank: 9

积分
3978
发表于 2022-10-4 04:55:41 | 显示全部楼层
学习下
回复 支持 反对

使用道具 举报

62

主题

1659

帖子

4810

积分

4K家园VIP

Rank: 9Rank: 9Rank: 9

积分
4810
发表于 2022-10-4 13:41:31 | 显示全部楼层
感谢分享
回复 支持 反对

使用道具 举报

39

主题

1525

帖子

4371

积分

4K家园VIP

Rank: 9Rank: 9Rank: 9

积分
4371
发表于 2022-10-5 16:14:39 | 显示全部楼层
前排顶,很好!
回复 支持 反对

使用道具 举报

您需要登录后才可以回帖 登录 | 立即注册

本版积分规则

精彩图文
Archiver|手机版|TAG|Sitemap|新帖|专题|联系我们:邮箱: 4kjia.com@gmail.com   

4k家园   ©2019