怪奇物语 [简繁中字] (2022) / 第四季全/4K高清版本下载

[复制链接]

主题

帖子

0

积分

超级版主

Rank: 8Rank: 8

积分
0
 楼主| 发表于 2022-10-1 14:13:25 | 显示全部楼层 |阅读模式
p2872941414_副本.png

◎标  题 怪奇物语 第四季
◎译  名 Montauk
◎片  名 Stranger Things Season 4
◎年  代 2022
◎产  地 美国
◎类  别 剧情 / 恐怖 / 奇幻
◎语  言 英语
◎上映日期 2022-05-27(美国)
◎IMDb评分 8.3/10 (5752人评价)
◎IMDb链接 https://www.imdb.com/title/tt11043488/
◎豆瓣链接 https://movie.douban.com/subject/27194292/
◎导  演 马特·达菲 Matt Duffer
      罗斯·达菲 Ross Duffer
◎编  剧 马特·达菲 Matt Duffer
      罗斯·达菲 Ross Duffer
◎演  员 米莉·波比·布朗 Millie Bobby Brown
      薇诺娜·瑞德 Winona Ryder
      菲恩·伍法德 Finn Wolfhard
      大卫·哈伯 David Harbour
      罗伯特·英格兰德 Robert Englund
      布伦特·吉尔曼 Brett Gelman
      乔·基瑞 Joe Keery
      娜塔莉·戴尔 Natalia Dyer
      萨迪·辛克 Sadie Sink
      卡拉·布欧诺 Cara Buono
      玛雅·霍克 Maya Hawke
      诺亚·施纳普 Noah Schnapp
      伽塔·马塔拉佐 Gaten Matarazzo
      杰米·坎贝尔·鲍尔 Jamie Campbell Bower
      马修·莫迪恩 Matthew Modine
      查理·希顿 Charlie Heaton
      艾米贝丝·麦克纳尔蒂 Amybeth McNulty
      汤姆·拉斯齐哈 Tom Wlaschiha
      格瑞思·范·迪恩 Grace Van Dien
      凯莱布·麦克劳克林 Caleb McLaughlin
      爱德华多·弗兰科 Eduardo Franco
      迈尔斯·特鲁伊特 Myles Truitt
      梅森·戴伊 Mason Dye
      普莉雅·弗格森 Priah Ferguson
      乔·克里斯特 Joe Chrest
      乔尔·斯托弗 Joel Stoffer
      尼科拉·德里克 Nikola Djuricko
      约瑟夫·奎恩 Joseph Quinn
      罗伯特·廷斯利 Robert Tinsley
      谢尔曼·奥古斯图斯 Sherman Augustus
      里贾纳·陈婷 Regina Ting Chen
      大卫·吉布森 David Gibson
      Chase Ledgerwood Chase Ledgerwood

◎简  介

  星庭之战已经过去六个月,那场战役给霍金斯镇带来了灭顶之灾,自此以后人心惶惶。在想尽各种办法之后,我们这群朋友们首次各奔东西,他们努力应对复杂的高中生活,但这并没有让事情变得更容易。在这个最脆弱的时代,一个可怕的全新超自然威胁浮出水面,并抛出了一个可怕的谜题,如果能够解开这个谜题,就可能从彻底终结恐怖的颠倒世界。

Video
ID : 1
Format : HEVC
Format/Info : High Efficiency Video Coding
Format profile : Main 10@L5@Main
HDR format : Dolby Vision, Version 1.0, dvhe.08.06, BL+RPU, HDR10 compatible / SMPTE ST 2086, HDR10 compatible
Codec ID : V_MPEGH/ISO/HEVC
Duration : 2 h 19 min
Bit rate : 15.8 Mb/s
Width : 3 840 pixels
Height : 2 160 pixels
Display aspect ratio : 16:9
Frame rate mode : Constant
Frame rate : 23.976 (24000/1001) FPS
Color space : YUV
Chroma subsampling : 4:2:0 (Type 2)
Bit depth : 10 bits
Bits/(Pixel*Frame) : 0.080
Stream size : 15.5 GiB (95%)
Default : Yes
Forced : No
Color range : Limited
Color primaries : BT.2020
Transfer characteristics : PQ
Matrix coefficients : BT.2020 non-constant
Mastering display color primaries : Display P3
Mastering display luminance : min: 0.0001 cd/m2, max: 1000 cd/m2
Maximum Content Light Level : 3040 cd/m2
Maximum Frame-Average Light Level : 160 cd/m2

Audio
ID : 2
Format : E-AC-3 JOC
Format/Info : Enhanced AC-3 with Joint Object Coding
Commercial name : Dolby Digital Plus with Dolby Atmos
Codec ID : A_EAC3
Duration : 2 h 19 min
Bit rate mode : Constant
Bit rate : 768 kb/s
Channel(s) : 6 channels
Channel layout : L R C LFE Ls Rs
Sampling rate : 48.0 kHz
Frame rate : 31.250 FPS (1536 SPF)
Compression mode : Lossy
Stream size : 769 MiB (5%)
Language : English
Service kind : Complete Main
Default : Yes
Forced : No
Complexity index : 16
Number of dynamic objects : 15
Bed channel count : 1 channel
Bed channel configuration : LFE

Text #1
ID : 3
Format : UTF-8
Codec ID : S_TEXT/UTF8
Codec ID/Info : UTF-8 Plain Text
Duration : 24 min 57 s
Bit rate : 4 b/s
Frame rate : 0.021 FPS
Count of elements : 31
Stream size : 817 Bytes (0%)
Title : Forced
Language : English
Default : No
Forced : Yes

Text #2
ID : 4
Format : UTF-8
Codec ID : S_TEXT/UTF8
Codec ID/Info : UTF-8 Plain Text
Duration : 2 h 19 min
Bit rate : 40 b/s
Frame rate : 0.191 FPS
Count of elements : 1592
Stream size : 41.5 KiB (0%)
Language : English
Default : No
Forced : No

Text #3
ID : 5
Format : UTF-8
Codec ID : S_TEXT/UTF8
Codec ID/Info : UTF-8 Plain Text
Duration : 2 h 19 min
Bit rate : 55 b/s
Frame rate : 0.265 FPS
Count of elements : 2218
Stream size : 57.0 KiB (0%)
Title : SDH
Language : English
Default : No
Forced : No

Text #4
ID : 6
Format : UTF-8
Codec ID : S_TEXT/UTF8
Codec ID/Info : UTF-8 Plain Text
Duration : 2 h 19 min
Bit rate : 49 b/s
Frame rate : 0.174 FPS
Count of elements : 1457
Stream size : 50.6 KiB (0%)
Language : Arabic
Default : No
Forced : No

Text #5
ID : 7
Format : UTF-8
Codec ID : S_TEXT/UTF8
Codec ID/Info : UTF-8 Plain Text
Duration : 2 h 19 min
Bit rate : 32 b/s
Frame rate : 0.175 FPS
Count of elements : 1461
Stream size : 33.1 KiB (0%)
Title : 中文(简体)
Language : Chinese
Default : No
Forced : No

Text #6
ID : 8
Format : UTF-8
Codec ID : S_TEXT/UTF8
Codec ID/Info : UTF-8 Plain Text
Duration : 2 h 19 min
Bit rate : 30 b/s
Frame rate : 0.176 FPS
Count of elements : 1475
Stream size : 31.1 KiB (0%)
Title : 中文(繁体)
Language : Chinese
Default : No
Forced : No


Text #7
ID : 9
Format : UTF-8
Codec ID : S_TEXT/UTF8
Codec ID/Info : UTF-8 Plain Text
Duration : 2 h 19 min
Bit rate : 31 b/s
Frame rate : 0.171 FPS
Count of elements : 1427
Stream size : 32.6 KiB (0%)
Language : Croatian
Default : No
Forced : No

Text #8
ID : 10
Format : UTF-8
Codec ID : S_TEXT/UTF8
Codec ID/Info : UTF-8 Plain Text
Duration : 2 h 19 min
Bit rate : 32 b/s
Frame rate : 0.167 FPS
Count of elements : 1394
Stream size : 33.6 KiB (0%)
Language : Czech
Default : No
Forced : No

Text #9
ID : 11
Format : UTF-8
Codec ID : S_TEXT/UTF8
Codec ID/Info : UTF-8 Plain Text
Duration : 2 h 19 min
Bit rate : 33 b/s
Frame rate : 0.166 FPS
Count of elements : 1386
Stream size : 34.6 KiB (0%)
Language : Danish
Default : No
Forced : No

Text #10
ID : 12
Format : UTF-8
Codec ID : S_TEXT/UTF8
Codec ID/Info : UTF-8 Plain Text
Duration : 2 h 19 min
Bit rate : 30 b/s
Frame rate : 0.144 FPS
Count of elements : 1205
Stream size : 31.3 KiB (0%)
Language : Dutch
Default : No
Forced : No

Text #11
ID : 13
Format : UTF-8
Codec ID : S_TEXT/UTF8
Codec ID/Info : UTF-8 Plain Text
Duration : 2 h 19 min
Bit rate : 31 b/s
Frame rate : 0.150 FPS
Count of elements : 1254
Stream size : 32.1 KiB (0%)
Language : Finnish
Default : No
Forced : No

Text #12
ID : 14
Format : UTF-8
Codec ID : S_TEXT/UTF8
Codec ID/Info : UTF-8 Plain Text
Duration : 2 h 19 min
Bit rate : 31 b/s
Frame rate : 0.161 FPS
Count of elements : 1346
Stream size : 32.5 KiB (0%)
Language : French
Default : No
Forced : No

Text #13
ID : 15
Format : UTF-8
Codec ID : S_TEXT/UTF8
Codec ID/Info : UTF-8 Plain Text
Duration : 2 h 19 min
Bit rate : 33 b/s
Frame rate : 0.169 FPS
Count of elements : 1416
Stream size : 34.6 KiB (0%)
Language : German
Default : No
Forced : No

Text #14
ID : 16
Format : UTF-8
Codec ID : S_TEXT/UTF8
Codec ID/Info : UTF-8 Plain Text
Duration : 2 h 19 min
Bit rate : 54 b/s
Frame rate : 0.173 FPS
Count of elements : 1447
Stream size : 55.9 KiB (0%)
Language : Greek
Default : No
Forced : No

Text #15
ID : 17
Format : UTF-8
Codec ID : S_TEXT/UTF8
Codec ID/Info : UTF-8 Plain Text
Duration : 2 h 19 min
Bit rate : 46 b/s
Frame rate : 0.174 FPS
Count of elements : 1455
Stream size : 47.5 KiB (0%)
Language : Hebrew
Default : No
Forced : No

Text #16
ID : 18
Format : UTF-8
Codec ID : S_TEXT/UTF8
Codec ID/Info : UTF-8 Plain Text
Duration : 2 h 19 min
Bit rate : 32 b/s
Frame rate : 0.158 FPS
Count of elements : 1318
Stream size : 33.1 KiB (0%)
Language : Hungarian
Default : No
Forced : No

Text #17
ID : 19
Format : UTF-8
Codec ID : S_TEXT/UTF8
Codec ID/Info : UTF-8 Plain Text
Duration : 2 h 19 min
Bit rate : 32 b/s
Frame rate : 0.175 FPS
Count of elements : 1461
Stream size : 33.5 KiB (0%)
Language : Indonesian
Default : No
Forced : No

Text #18
ID : 20
Format : UTF-8
Codec ID : S_TEXT/UTF8
Codec ID/Info : UTF-8 Plain Text
Duration : 2 h 19 min
Bit rate : 32 b/s
Frame rate : 0.171 FPS
Count of elements : 1433
Stream size : 32.9 KiB (0%)
Language : Italian
Default : No
Forced : No

Text #19
ID : 21
Format : UTF-8
Codec ID : S_TEXT/UTF8
Codec ID/Info : UTF-8 Plain Text
Duration : 2 h 19 min
Bit rate : 32 b/s
Frame rate : 0.163 FPS
Count of elements : 1366
Stream size : 33.1 KiB (0%)
Language : Japanese
Default : No
Forced : No

Text #20
ID : 22
Format : UTF-8
Codec ID : S_TEXT/UTF8
Codec ID/Info : UTF-8 Plain Text
Duration : 2 h 19 min
Bit rate : 36 b/s
Frame rate : 0.165 FPS
Count of elements : 1382
Stream size : 37.0 KiB (0%)
Language : Korean
Default : No
Forced : No

Text #21
ID : 23
Format : UTF-8
Codec ID : S_TEXT/UTF8
Codec ID/Info : UTF-8 Plain Text
Duration : 2 h 19 min
Bit rate : 32 b/s
Frame rate : 0.173 FPS
Count of elements : 1447
Stream size : 33.5 KiB (0%)
Language : Malay
Default : No
Forced : No

Text #22
ID : 24
Format : UTF-8
Codec ID : S_TEXT/UTF8
Codec ID/Info : UTF-8 Plain Text
Duration : 2 h 19 min
Bit rate : 32 b/s
Frame rate : 0.158 FPS
Count of elements : 1317
Stream size : 33.0 KiB (0%)
Language : Norwegian Bokmal
Default : No
Forced : No

Text #23
ID : 25
Format : UTF-8
Codec ID : S_TEXT/UTF8
Codec ID/Info : UTF-8 Plain Text
Duration : 2 h 19 min
Bit rate : 33 b/s
Frame rate : 0.167 FPS
Count of elements : 1399
Stream size : 33.7 KiB (0%)
Language : Polish
Default : No
Forced : No

Text #24
ID : 26
Format : UTF-8
Codec ID : S_TEXT/UTF8
Codec ID/Info : UTF-8 Plain Text
Duration : 2 h 16 min
Bit rate : 35 b/s
Frame rate : 0.171 FPS
Count of elements : 1405
Stream size : 35.1 KiB (0%)
Title : Brazilian
Language : Portuguese
Default : No
Forced : No

Text #25
ID : 27
Format : UTF-8
Codec ID : S_TEXT/UTF8
Codec ID/Info : UTF-8 Plain Text
Duration : 2 h 14 min
Bit rate : 34 b/s
Frame rate : 0.178 FPS
Count of elements : 1435
Stream size : 34.3 KiB (0%)
Title : Iberian
Language : Portuguese
Default : No
Forced : No

Text #26
ID : 28
Format : UTF-8
Codec ID : S_TEXT/UTF8
Codec ID/Info : UTF-8 Plain Text
Duration : 2 h 19 min
Bit rate : 33 b/s
Frame rate : 0.155 FPS
Count of elements : 1296
Stream size : 34.1 KiB (0%)
Language : Romanian
Default : No
Forced : No

Text #27
ID : 29
Format : UTF-8
Codec ID : S_TEXT/UTF8
Codec ID/Info : UTF-8 Plain Text
Duration : 2 h 19 min
Bit rate : 55 b/s
Frame rate : 0.161 FPS
Count of elements : 1349
Stream size : 56.3 KiB (0%)
Language : Russian
Default : No
Forced : No

Text #28
ID : 30
Format : UTF-8
Codec ID : S_TEXT/UTF8
Codec ID/Info : UTF-8 Plain Text
Duration : 2 h 19 min
Bit rate : 32 b/s
Frame rate : 0.172 FPS
Count of elements : 1440
Stream size : 33.2 KiB (0%)
Title : Castilian
Language : Spanish
Default : No
Forced : No

Text #29
ID : 31
Format : UTF-8
Codec ID : S_TEXT/UTF8
Codec ID/Info : UTF-8 Plain Text
Duration : 2 h 19 min
Bit rate : 33 b/s
Frame rate : 0.171 FPS
Count of elements : 1433
Stream size : 34.1 KiB (0%)
Title : Latin American
Language : Spanish
Default : No
Forced : No

Text #30
ID : 32
Format : UTF-8
Codec ID : S_TEXT/UTF8
Codec ID/Info : UTF-8 Plain Text
Duration : 2 h 19 min
Bit rate : 33 b/s
Frame rate : 0.144 FPS
Count of elements : 1205
Stream size : 34.5 KiB (0%)
Language : Swedish
Default : No
Forced : No

Text #31
ID : 33
Format : UTF-8
Codec ID : S_TEXT/UTF8
Codec ID/Info : UTF-8 Plain Text
Duration : 2 h 19 min
Bit rate : 80 b/s
Frame rate : 0.175 FPS
Count of elements : 1467
Stream size : 82.5 KiB (0%)
Language : Thai
Default : No
Forced : No

Text #32
ID : 34
Format : UTF-8
Codec ID : S_TEXT/UTF8
Codec ID/Info : UTF-8 Plain Text
Duration : 2 h 19 min
Bit rate : 33 b/s
Frame rate : 0.129 FPS
Count of elements : 1078
Stream size : 34.5 KiB (0%)
Language : Turkish
Default : No
Forced : No

Text #33
ID : 35
Format : UTF-8
Codec ID : S_TEXT/UTF8
Codec ID/Info : UTF-8 Plain Text
Duration : 2 h 19 min
Bit rate : 51 b/s
Frame rate : 0.174 FPS
Count of elements : 1458
Stream size : 52.1 KiB (0%)
Language : Ukrainian
Default : No
Forced : No

Text #34
ID : 36
Format : UTF-8
Codec ID : S_TEXT/UTF8
Codec ID/Info : UTF-8 Plain Text
Duration : 2 h 19 min
Bit rate : 43 b/s
Frame rate : 0.166 FPS
Count of elements : 1388
Stream size : 44.3 KiB (0%)
Language : Vietnamese
Default : No
Forced : No


下载地址

游客,如果您要查看本帖隐藏内容请回复







上一篇:医院五日[简繁粤中字] (2022) / 第一季全/4K高清版本下载
下一篇:超/自然 [简繁粤中字] (2022) / 第一季全/4K高清版本下载
回复

使用道具 举报

0

主题

1385

帖子

4177

积分

4K家园VIP

Rank: 9Rank: 9Rank: 9

积分
4177
发表于 2022-10-1 14:14:19 | 显示全部楼层
正好需要啊
回复 支持 反对

使用道具 举报

0

主题

323

帖子

1920

积分

4K家园VIP

Rank: 9Rank: 9Rank: 9

积分
1920
QQ
发表于 2022-10-1 15:46:42 | 显示全部楼层
让 江小白 来看看帖子里藏了啥好东西~~~
回复 支持 反对

使用道具 举报

主题

帖子

10

积分

新手上路

Rank: 1

积分
10
发表于 2022-10-1 16:02:26 | 显示全部楼层
喜欢楼主的分享
回复 支持 反对

使用道具 举报

主题

帖子

6

积分

新手上路

Rank: 1

积分
6
发表于 2022-10-1 17:22:01 | 显示全部楼层
感谢~~
回复

使用道具 举报

主题

帖子

27

积分

新手上路

Rank: 1

积分
27
发表于 2022-10-4 15:17:45 | 显示全部楼层
66666666666666666666
回复 支持 反对

使用道具 举报

主题

帖子

9

积分

新手上路

Rank: 1

积分
9
发表于 2022-10-12 18:00:19 | 显示全部楼层
我滴乖乖 厉害了
回复 支持 反对

使用道具 举报

主题

帖子

6

积分

新手上路

Rank: 1

积分
6
发表于 2022-10-22 13:32:22 | 显示全部楼层
谢谢分享
回复

使用道具 举报

主题

帖子

16

积分

新手上路

Rank: 1

积分
16
发表于 2022-10-24 21:40:10 | 显示全部楼层
没金币下载不了
回复 支持 反对

使用道具 举报

主题

帖子

6

积分

新手上路

Rank: 1

积分
6
发表于 2022-10-30 15:02:20 | 显示全部楼层
感谢分享!!!!
回复

使用道具 举报

您需要登录后才可以回帖 登录 | 立即注册

本版积分规则

精彩图文
Archiver|手机版|TAG|Sitemap|新帖|专题|联系我们:邮箱: 4kjia.com@gmail.com   

4k家园   ©2019