[4K UHD 蓝光原盘] 蝙蝠侠:漫长的万圣节 (2022) 4K蓝光[原盘+REMUX]版本下载

[复制链接]

主题

帖子

0

积分

超级版主

Rank: 8Rank: 8

积分
0
 楼主| 发表于 2022-10-1 15:33:55 | 显示全部楼层 |阅读模式
本帖最后由 没完没了 于 2022-10-2 21:03 编辑

QQ图片20221001153635_副本.png

◎译  名 蝙蝠侠:漫长的万圣节
◎片  名 Batman: The Long Halloween
◎年  代 2022
◎产  地 美国
◎类  别 动作/科幻/动画
◎语  言 英语
◎上映日期 2022-09-20(美国国)
◎IMDb评分 8.3/10 from 51 users 更新 : 2022-10-01
◎IMDb链接 https://www.imdb.com/title/tt21445686/
◎豆瓣评分 ?
◎豆瓣链接 ?
◎片  长 168 分钟
◎导  演 克里斯·帕尔默 Chris Palmer
◎编  剧 蒂姆·谢里丹 Tim Sheridan / 杰夫·洛布 Jeph Loeb / 蒂姆·谢里丹 Tim Sheridan
◎演  员   詹森·阿克斯 Jensen Ackles              
                  莱拉·贝尔津什 Laila Berzins
                  弗朗西斯·卡利尔
                  扎克·卡利森 Zach Callison
                  Greg Chun Greg Chun
                  罗宾·阿特金·唐斯 Robin Atkin Downes
                  阿拉斯泰尔·邓肯 Alastair Duncan
                  加里·勒罗·格雷 Gary LeRoi Gray
                  丹·马特尤奇 Dan Matteucci
                  朱莉·内森森 Julie Nathanson
                  吉姆·皮尔里 Jim Pirri
                  杰克·奎德 Jack Quaid
                  凯蒂·萨克霍夫 Katee Sackhoff     
                  弗雷德·塔塔西奥雷 Fred Tatasciore
                  法桑·穆纳瓦尔·瓦里亚 Faizan Munawar Varya
                  里克·D·沃瑟曼 Rick D. Wasserman

◎简  介


        哥谭市假日期间的残暴连环杀戮让世界上最伟大的侦探采取行动 - 面对有组织的犯罪和经典 DC 超级反派的统一战线 - 同时试图阻止神秘的凶手。

Video
ID : 1
ID in the original source medium : 4113 (0x1011)
Format : HEVC
Format/Info : High Efficiency Video Coding
Format profile : Main 10@L5.1@High
HDR format : SMPTE ST 2086, HDR10 compatible
Codec ID : V_MPEGH/ISO/HEVC
Duration : 2 h 48 min
Bit rate : 40.9 Mb/s
Width : 3 840 pixels
Height : 2 160 pixels
Display aspect ratio : 16:9
Frame rate mode : Constant
Frame rate : 23.976 (24000/1001) FPS
Color space : YUV
Chroma subsampling : 4:2:0 (Type 2)
Bit depth : 10 bits
Bits/(Pixel*Frame) : 0.206
Stream size : 48.1 GiB (89%)
Writing library : ATEME Titan File 3.9.6 (4.9.6.2)
Language : English
Default : No
Forced : No
Color range : Limited
Color primaries : BT.2020
Transfer characteristics : PQ
Matrix coefficients : BT.2020 non-constant
Mastering display color primaries : BT.2020
Mastering display luminance : min: 0.0050 cd/m2, max: 1000 cd/m2
Maximum Content Light Level : 185 cd/m2
Maximum Frame-Average Light Level : 65 cd/m2
Original source medium : Blu-ray

Audio #1
ID : 2
ID in the original source medium : 4352 (0x1100)
Format : DTS XLL
Format/Info : Digital Theater Systems
Commercial name : DTS-HD Master Audio
Codec ID : A_DTS
Duration : 2 h 48 min
Bit rate mode : Variable
Bit rate : 2 947 kb/s
Channel(s) : 6 channels
Channel layout : C L R Ls Rs LFE
Sampling rate : 48.0 kHz
Frame rate : 93.750 FPS (512 SPF)
Bit depth : 24 bits
Compression mode : Lossless
Stream size : 3.46 GiB (6%)
Title : DTS-HD MA 5.1
Language : English
Default : Yes
Forced : No
Original source medium : Blu-ray

Audio #2
ID : 3
Format : AC-3
Format/Info : Audio Coding 3
Commercial name : Dolby Digital
Codec ID : A_AC3
Duration : 2 h 48 min
Bit rate mode : Constant
Bit rate : 640 kb/s
Channel(s) : 6 channels
Channel layout : L R C LFE Ls Rs
Sampling rate : 48.0 kHz
Frame rate : 31.250 FPS (1536 SPF)
Compression mode : Lossy
Stream size : 770 MiB (1%)
Title : DD 5.1
Language : English
Service kind : Complete Main
Default : No
Forced : No

Audio #3
ID : 4
ID in the original source medium : 4353 (0x1101)
Format : AC-3
Format/Info : Audio Coding 3
Commercial name : Dolby Digital
Codec ID : A_AC3
Duration : 2 h 48 min
Bit rate mode : Constant
Bit rate : 640 kb/s
Channel(s) : 6 channels
Channel layout : L R C LFE Ls Rs
Sampling rate : 48.0 kHz
Frame rate : 31.250 FPS (1536 SPF)
Compression mode : Lossy
Stream size : 770 MiB (1%)
Title : DD 5.1
Language : French
Service kind : Complete Main
Default : No
Forced : No
Original source medium : Blu-ray

Audio #4
ID : 5
ID in the original source medium : 4354 (0x1102)
Format : AC-3
Format/Info : Audio Coding 3
Commercial name : Dolby Digital
Codec ID : A_AC3
Duration : 2 h 48 min
Bit rate mode : Constant
Bit rate : 640 kb/s
Channel(s) : 6 channels
Channel layout : L R C LFE Ls Rs
Sampling rate : 48.0 kHz
Frame rate : 31.250 FPS (1536 SPF)
Compression mode : Lossy
Stream size : 770 MiB (1%)
Title : DD 5.1
Language : Spanish
Service kind : Complete Main
Default : No
Forced : No
Original source medium : Blu-ray

Text #1
ID : 6
Format : UTF-8
Codec ID : S_TEXT/UTF8
Codec ID/Info : UTF-8 Plain Text
Duration : 2 h 47 min
Bit rate : 41 b/s
Frame rate : 0.174 FPS
Count of elements : 1745
Stream size : 51.2 KiB (0%)
Language : English
Default : Yes
Forced : No

Text #2
ID : 7
ID in the original source medium : 4768 (0x12A0)
Format : PGS
Muxing mode : zlib
Codec ID : S_HDMV/PGS
Codec ID/Info : Picture based subtitle format used on BDs/HD-DVDs
Duration : 2 h 47 min
Bit rate : 29.8 kb/s
Frame rate : 0.421 FPS
Count of elements : 4236
Stream size : 35.8 MiB (0%)
Language : English
Default : No
Forced : No
Original source medium : Blu-ray

Text #3
ID : 8
ID in the original source medium : 4769 (0x12A1)
Format : PGS
Muxing mode : zlib
Codec ID : S_HDMV/PGS
Codec ID/Info : Picture based subtitle format used on BDs/HD-DVDs
Duration : 2 h 47 min
Bit rate : 27.1 kb/s
Frame rate : 0.352 FPS
Count of elements : 3532
Stream size : 32.5 MiB (0%)
Language : French
Default : No
Forced : No
Original source medium : Blu-ray

Text #4
ID : 9
ID in the original source medium : 4770 (0x12A2)
Format : PGS
Muxing mode : zlib
Codec ID : S_HDMV/PGS
Codec ID/Info : Picture based subtitle format used on BDs/HD-DVDs
Duration : 2 h 47 min
Bit rate : 26.7 kb/s
Frame rate : 0.352 FPS
Count of elements : 3538
Stream size : 32.0 MiB (0%)
Language : Spanish
Default : No
Forced : No
Original source medium : Blu-ray

Text #5
ID : 10
ID in the original source medium : 4771 (0x12A3)
Format : PGS
Muxing mode : zlib
Codec ID : S_HDMV/PGS
Codec ID/Info : Picture based subtitle format used on BDs/HD-DVDs
Duration : 2 h 44 min
Bit rate : 544 b/s
Frame rate : 0.008 FPS
Count of elements : 76
Stream size : 657 KiB (0%)
Title : FORCED
Language : French
Default : No
Forced : No
Original source medium : Blu-ray

Text #6
ID : 11
ID in the original source medium : 4772 (0x12A4)
Format : PGS
Muxing mode : zlib
Codec ID : S_HDMV/PGS
Codec ID/Info : Picture based subtitle format used on BDs/HD-DVDs
Duration : 2 h 41 min
Bit rate : 241 b/s
Frame rate : 0.004 FPS
Count of elements : 34
Stream size : 286 KiB (0%)
Title : FORCED
Language : Spanish
Default : No
Forced : No
Original source medium : Blu-ray

Menu
00:00:00.000 : en:Chapter 01
00:06:01.652 : en:Chapter 02
00:14:30.369 : en:Chapter 03
00:24:21.960 : en:Chapter 04
00:34:17.972 : en:Chapter 05
00:44:10.814 : en:Chapter 06
00:53:09.561 : en:Chapter 07
01:01:27.642 : en:Chapter 08
01:08:31.357 : en:Chapter 09
01:18:26.743 : en:Chapter 10
01:26:53.124 : en:Chapter 11
01:36:39.001 : en:Chapter 12
01:46:10.697 : en:Chapter 13
01:54:54.554 : en:Chapter 14
02:04:37.011 : en:Chapter 15
02:13:29.918 : en:Chapter 16
02:22:39.259 : en:Chapter 17
02:30:46.787 : en:Chapter 18
02:38:02.890 : en:Chapter 19
02:45:29.294 : en:Chapter 20

新种推荐使用qBittorrent、uTorrent、BitComet等下载软件,有条件的推荐115更好的下载软件!
蝙蝠侠:漫长的万圣节(59.30GBGB)Batman.The.Long.Halloween.2022.2160p.BluRay.HEVC.DTS-HD.MA.5.1-TASTED-【2160P蓝光原盘
游客,如果您要查看本帖隐藏内容请回复

蝙蝠侠:漫长的万圣节(53.87GB)Batman.The.Long.Halloween.2022.2160p.BluRay.REMUX.HEVC.DTS-HD.MA.5.1-FGT-【2160P蓝光REMUX】
游客,如果您要查看本帖隐藏内容请回复

蝙蝠侠:漫长的万圣节(21.85GBGB)Batman.The.Long.Halloween.2022.2160p.BluRay.x264.8bit.SDR.DTS-HD.MA.5.1-SWTYBLZ
游客,如果您要查看本帖隐藏内容请回复

蝙蝠侠:漫长的万圣节(21.64GBGB)Batman.The.Long.Halloween.2022.2160p.BluRay.x265.10bit.SDR.DTS-HD.MA.5.1-SWTYBLZ
游客,如果您要查看本帖隐藏内容请回复

蝙蝠侠:漫长的万圣节(18.15GB)Batman.The.Long.Halloween.2022.2160p.UHD.BluRay.x265.10bit.HDR.DTS-HD.MA.5.1-SWTYBLZ
游客,如果您要查看本帖隐藏内容请回复



QQ4K海报.gif

上一篇:世界大战 / War of the Worlds (1953) 4K蓝光[原盘+REMUX]版本下载
下一篇:桃色交易 / Indecent Proposal (1993) 4K蓝光[原盘+REMUX]版本下载
回复

使用道具 举报

53

主题

1292

帖子

3944

积分

4K家园VIP

Rank: 9Rank: 9Rank: 9

积分
3944
发表于 2022-10-1 15:33:58 | 显示全部楼层
支持一下楼主,顶起来
回复 支持 反对

使用道具 举报

主题

帖子

0

积分

4K家园VIP

Rank: 9Rank: 9Rank: 9

积分
0
发表于 2022-10-1 16:18:07 | 显示全部楼层
太好啦&萬分感謝版主的無私發佈分享%
回复 支持 反对

使用道具 举报

主题

帖子

6

积分

新手上路

Rank: 1

积分
6
发表于 2022-10-1 18:37:23 | 显示全部楼层
谢谢
回复

使用道具 举报

主题

帖子

18

积分

新手上路

Rank: 1

积分
18
发表于 2022-10-1 18:38:12 来自手机 | 显示全部楼层
当时看哭了
回复 支持 反对

使用道具 举报

2

主题

1228

帖子

3704

积分

4K家园VIP

Rank: 9Rank: 9Rank: 9

积分
3704
发表于 2022-10-2 02:28:10 | 显示全部楼层
我只是看看啊,不说话
回复 支持 反对

使用道具 举报

主题

帖子

37

积分

新手上路

Rank: 1

积分
37
发表于 2022-10-2 05:57:14 来自手机 | 显示全部楼层
谢谢分享~~~~~
回复 支持 反对

使用道具 举报

主题

帖子

25

积分

新手上路

Rank: 1

积分
25
发表于 2022-10-3 21:38:41 | 显示全部楼层
感谢楼主分享!
回复 支持 反对

使用道具 举报

0

主题

1624

帖子

4475

积分

4K家园VIP

Rank: 9Rank: 9Rank: 9

积分
4475
发表于 2022-10-15 13:23:49 | 显示全部楼层
谢谢楼主
回复 支持 反对

使用道具 举报

201

主题

1780

帖子

4902

积分

4K家园VIP

Rank: 9Rank: 9Rank: 9

积分
4902
发表于 2022-10-17 07:28:54 | 显示全部楼层
谢谢楼主
回复 支持 反对

使用道具 举报

您需要登录后才可以回帖 登录 | 立即注册

本版积分规则

精彩图文
Archiver|手机版|TAG|Sitemap|新帖|专题|联系我们:邮箱: 4kjia.com@gmail.com   

4k家园   ©2019