[4K UHD 蓝光原盘] 女王神剑[DIY简繁中字] / Red Sonja (1985)4K蓝光REMUX版本下载

[复制链接]

主题

帖子

0

积分

超级版主

Rank: 8Rank: 8

积分
0
 楼主| 发表于 2022-10-2 16:51:56 | 显示全部楼层 |阅读模式
本帖最后由 没完没了 于 2022-10-2 17:01 编辑

093743aesuselzl6crlxsu.png

◎标  题 女王神剑
◎译  名 两个大太阳 / 红发女索妮娅 / 圣女复仇
◎片  名 Red Sonja
◎年  代 1985
◎产  地 美国 / 荷兰
◎类  别 动作 / 奇幻 / 冒险
◎语  言 英语
◎上映日期 1985-07-03(美国)
◎IMDb评分 5.1/10 from 41548 users
◎IMDb链接 https://www.imdb.com/title/tt0089893/
◎豆瓣评分 5.7/10 from 649 users
◎豆瓣链接 https://movie.douban.com/subject/1297394/
◎片  长 89 分钟
◎导  演 理查德·弗莱彻 Richard Fleischer
◎编  剧 罗伯特·霍华德 Robert E. Howard / 克里夫·埃克斯顿 Clive Exton / 乔治·麦克唐纳·弗莱泽 George MacDonald Fraser / 罗伊·托马斯 Roy Thomas / 巴里·温莎·史密斯 Barry Windsor-Smith
◎演  员 阿诺·施瓦辛格 Arnold Schwarzenegger
       布里吉特·尼尔森 Brigitte Nielsen
       桑达·伯格曼 Sandahl Bergman
       保罗·L·史密斯 Paul L. Smith
       厄尼·雷耶斯 Ernie Reyes Jr.
       罗纳德·莱西 Ronald Lacey
       帕特·罗奇 Pat Roach
       珍妮特·阿格伦 Janet Agren
       拉腊·兰贝蒂 Lara Lamberti
       汉斯·迈尔 Hans Meyer
       弗兰切丝卡·布露玛拉·科鲁奇 Francesca Romana Coluzzi
       史文-欧尔·托尔森 Sven-Ole Thorsen
       斯特凡诺·玛丽亚·米奥尼 Stefano Maria Mioni
       塔特·伦科夫 Tutte Lemkow
       泰德·霍里诺 Tad Horino
       埃里克·霍尔米 Erik Holmey


◎简  介

    女主角索妮娅生于一个小康之家,过着平静的生活;有一天,她的父母被一名恶毒的皇族杀害。索妮娅伤心欲绝之际,誓要为父母报仇。她原来拥有一种神秘力量,可是她不可爱上男人,除非那个男人强过她,否则,她的神力就会消失。幸好在追寻那个毒后途中,遇上一名心仪的男人……
General
Complete name                  : D:\4K蓝光\[4Kjia小组压制]女王神剑 [DIY简繁中字] Red.Sonja.1985.B.BluRay.HEVC.DTS.UHD.2160p.HDR.DV8-Не-ALANG\
Format                         : Matroska
Format version                 : Version 4
File size                      : 45.7 GiB
Duration                       : 1 h 29 min
Overall bit rate mode          : Variable
Overall bit rate               : 73.4 Mb/s
Movie name                     : Red.Sonja.1985.BDRemux.UHD.2160p.HDR.DV8-Нечипорук
Encoded date                   : UTC 2022-10-02 08:11:04
Writing application            : mkvmerge v68.0.0 ('The Curtain') 64-bit
Writing library                : libebml v1.4.2 + libmatroska v1.6.4
Cover                          : Yes
Attachments                    : cover.jpg

Video
ID                             : 1
Format                         : HEVC
Format/Info                    : High Efficiency Video Coding
Format profile                 : Main 10@L5.1@High
HDR format                     : Dolby Vision, Version 1.0, dvhe.08.06, BL+RPU, HDR10 compatible / SMPTE ST 2086, HDR10 compatible
Codec ID                       : V_MPEGH/ISO/HEVC
Duration                       : 1 h 29 min
Bit rate                       : 67.7 Mb/s
Width                          : 3 840 pixels
Height                         : 2 160 pixels
Display aspect ratio           : 16:9
Frame rate mode                : Constant
Frame rate                     : 24.000 FPS
Color space                    : YUV
Chroma subsampling             : 4:2:0 (Type 2)
Bit depth                      : 10 bits
Bits/(Pixel*Frame)             : 0.340
Stream size                    : 42.2 GiB (92%)
Title                          : Red.Sonja.1985.BDRemux.UHD.2160p.HDR.DV8-Нечипорук
Language                       : English
Default                        : Yes
Forced                         : No
Color range                    : Limited
Color primaries                : BT.2020
Transfer characteristics       : PQ
Matrix coefficients            : BT.2020 non-constant
Mastering display color primar : BT.2020
Mastering display luminance    : min: 0.0001 cd/m2, max: 1000 cd/m2

Audio #1
ID                             : 2
Format                         : DTS XLL
Format/Info                    : Digital Theater Systems
Commercial name                : DTS-HD Master Audio
Codec ID                       : A_DTS
Duration                       : 1 h 29 min
Bit rate mode                  : Variable
Bit rate                       : 1 873 kb/s
Channel(s)                     : 6 channels
Channel layout                 : C L R Ls Rs LFE
Sampling rate                  : 48.0 kHz
Frame rate                     : 93.750 FPS (512 SPF)
Bit depth                      : 16 bits
Compression mode               : Lossless
Stream size                    : 1.17 GiB (3%)
Title                          : MVO Карусель
Language                       : Russian
Default                        : Yes
Forced                         : No

Audio #2
ID                             : 3
Format                         : DTS XLL
Format/Info                    : Digital Theater Systems
Commercial name                : DTS-HD Master Audio
Codec ID                       : A_DTS
Duration                       : 1 h 29 min
Bit rate mode                  : Variable
Bit rate                       : 3 792 kb/s
Channel(s)                     : 6 channels
Channel layout                 : C L R Ls Rs LFE
Sampling rate                  : 48.0 kHz
Frame rate                     : 93.750 FPS (512 SPF)
Bit depth                      : 24 bits
Compression mode               : Lossless
Stream size                    : 2.36 GiB (5%)
Title                          : Original
Language                       : English
Default                        : No
Forced                         : No

Text #1
ID                             : 4
Format                         : UTF-8
Codec ID                       : S_TEXT/UTF8
Codec ID/Info                  : UTF-8 Plain Text
Duration                       : 1 h 25 min
Bit rate                       : 44 b/s
Frame rate                     : 0.104 FPS
Count of elements              : 532
Stream size                    : 28.1 KiB (0%)
Title                          : Полные
Language                       : Russian
Default                        : No
Forced                         : No

Text #2
ID                             : 5
Format                         : UTF-8
Codec ID                       : S_TEXT/UTF8
Codec ID/Info                  : UTF-8 Plain Text
Duration                       : 1 h 24 min
Bit rate                       : 24 b/s
Frame rate                     : 0.086 FPS
Count of elements              : 437
Stream size                    : 14.9 KiB (0%)
Title                          : Full SRT
Language                       : English
Default                        : No
Forced                         : No

Text #3
ID                             : 6
Format                         : PGS
Muxing mode                    : zlib
Codec ID                       : S_HDMV/PGS
Codec ID/Info                  : Picture based subtitle format used on BDs/HD-DVDs
Duration                       : 1 h 24 min
Bit rate                       : 14.8 kb/s
Frame rate                     : 0.173 FPS
Count of elements              : 874
Stream size                    : 8.95 MiB (0%)
Title                          : Full PGS
Language                       : English
Default                        : No
Forced                         : No

Text #4
ID                             : 7
Format                         : PGS
Muxing mode                    : zlib
Codec ID                       : S_HDMV/PGS
Codec ID/Info                  : Picture based subtitle format used on BDs/HD-DVDs
Duration                       : 1 h 28 min
Bit rate                       : 17.2 kb/s
Frame rate                     : 0.171 FPS
Count of elements              : 910
Stream size                    : 10.9 MiB (0%)
Title                          : Voll
Language                       : German
Default                        : No
Forced                         : No

Text #5
ID                             : 8
Format                         : PGS
Muxing mode                    : zlib
Codec ID                       : S_HDMV/PGS
Codec ID/Info                  : Picture based subtitle format used on BDs/HD-DVDs
Duration                       : 1 h 28 min
Bit rate                       : 14.8 kb/s
Frame rate                     : 0.206 FPS
Count of elements              : 1098
Stream size                    : 9.38 MiB (0%)
Title                          : Complets
Language                       : French
Default                        : No
Forced                         : No

Text #6
ID                             : 9
Format                         : ASS
Codec ID                       : S_TEXT/ASS
Codec ID/Info                  : Advanced Sub Station Alpha
Duration                       : 1 h 25 min
Bit rate                       : 79 b/s
Frame rate                     : 0.096 FPS
Count of elements              : 491
Compression mode               : Lossless
Stream size                    : 49.5 KiB (0%)
Title                          : 中文繁体&英文
Language                       : Chinese
Default                        : Yes
Forced                         : No

Text #7
ID                             : 10
Format                         : ASS
Codec ID                       : S_TEXT/ASS
Codec ID/Info                  : Advanced Sub Station Alpha
Duration                       : 1 h 25 min
Bit rate                       : 79 b/s
Frame rate                     : 0.096 FPS
Count of elements              : 491
Compression mode               : Lossless
Stream size                    : 49.5 KiB (0%)
Title                          : 中文简体
Language                       : Chinese
Default                        : Yes
Forced                         : No


新种推荐使用qBittorrent、uTorrent、BitComet等下载软件,有条件的推荐115更好的下载软件!

[4Kjia小组压制]女王神剑(45.69GB)[DIY简繁中字] Red.Sonja.1985.B.BluRay.HEVC.DTS.UHD.2160p.HDR.DV8-Не-ALANG-【2160P蓝光REMUX】
游客,如果您要查看本帖隐藏内容请回复



相关其他4K蓝光版本链接:女王神剑 / Red Sonja (1985) 4K蓝光版本下载


QQ4K海报.gif

上一篇:桃色交易 / Indecent Proposal (1993) 4K蓝光[原盘+REMUX]版本下载
下一篇:夜脊 / The Spine of Night (2021) 4K蓝光[原盘+REMUX]版本下载
回复

使用道具 举报

主题

帖子

0

积分

超级版主

Rank: 8Rank: 8

积分
0
 楼主| 发表于 2022-10-2 16:56:09 | 显示全部楼层
本帖最后由 没完没了 于 2022-10-6 19:32 编辑

QQ图片20221002165039.png QQ图片20221002165121.png QQ图片20221006193155.png
回复 支持 反对

使用道具 举报

54

主题

1612

帖子

4607

积分

4K家园VIP

Rank: 9Rank: 9Rank: 9

积分
4607
发表于 2022-10-2 16:52:01 | 显示全部楼层
4K家园资源不错,前排支持
回复 支持 反对

使用道具 举报

0

主题

1431

帖子

4127

积分

中级会员

Rank: 4

积分
4127
发表于 2022-10-2 19:22:30 | 显示全部楼层
楼猪辛苦了,支持一下分享好资源
回复 支持 反对

使用道具 举报

主题

帖子

0

积分

4K家园VIP

Rank: 9Rank: 9Rank: 9

积分
0
发表于 2022-10-2 19:58:02 | 显示全部楼层
太好啦&萬分感謝版主的無私發佈分享%
回复 支持 反对

使用道具 举报

0

主题

1288

帖子

3878

积分

4K家园VIP

Rank: 9Rank: 9Rank: 9

积分
3878
发表于 2022-10-3 16:15:09 | 显示全部楼层
这个资源我记得是一套的,楼主还有没有
回复 支持 反对

使用道具 举报

主题

帖子

0

积分

新手上路

Rank: 1

积分
0
发表于 2022-10-3 18:08:43 | 显示全部楼层
好像还不錯
楼主謝謝
回复 支持 反对

使用道具 举报

3

主题

1766

帖子

4892

积分

4K家园VIP

Rank: 9Rank: 9Rank: 9

积分
4892
发表于 2022-10-3 21:40:40 来自手机 | 显示全部楼层
楼主这资源不错,我收藏了
回复 支持 反对

使用道具 举报

21

主题

1224

帖子

3666

积分

4K家园VIP

Rank: 9Rank: 9Rank: 9

积分
3666
发表于 2022-10-4 11:52:34 来自手机 | 显示全部楼层
你们要是有4K资源记得分享,别小气
回复 支持 反对

使用道具 举报

您需要登录后才可以回帖 登录 | 立即注册

本版积分规则

精彩图文
Archiver|手机版|TAG|Sitemap|新帖|专题|联系我们:邮箱: 4kjia.com@gmail.com   

4k家园   ©2019