[4K美女视频] 2019大佳河滨公园 比基尼泳装美女1 [2160P /MP4/194MB]

[复制链接]

1223

主题

1369

帖子

9363

积分

超级版主

Rank: 8Rank: 8

积分
9363
 楼主| 发表于 2019-8-2 13:45:11 | 显示全部楼层 |阅读模式
本帖最后由 叽里呱啦 于 2019-8-2 14:03 编辑

2019大佳河滨公园 比基尼泳装美女1.mp4_20190802_134623.838.jpg 2019大佳河滨公园 比基尼泳装美女1.mp4_20190802_134632.869.jpg 2019大佳河滨公园 比基尼泳装美女1.mp4_20190802_134639.869.jpg 2019大佳河滨公园 比基尼泳装美女1.mp4_20190802_134647.909.jpg 2019大佳河滨公园 比基尼泳装美女1.mp4.jpg

General
Complete name                  :4K视频\2019大佳河滨公园 比基尼泳装美女1.mp4
Format                         : MPEG-4
Format profile                 : Base Media
Codec ID                       : isom (isom/iso2/avc1/mp41)
File size                      : 194 MiB
Duration                       : 1 min 43 s
Overall bit rate               : 15.8 Mb/s
Writing application            : Lavf58.12.100

Video
ID                             : 1
Format                         : AVC
Format/Info                    : Advanced Video Codec
Format profile                 : High@L5.1
Format settings                : CABAC / 4 Ref Frames
Format settings, CABAC         : Yes
Format settings, Reference fra : 4 frames
Codec ID                       : avc1
Codec ID/Info                  : Advanced Video Coding
Duration                       : 1 min 43 s
Bit rate                       : 16.0 Mb/s
Width                          : 3 832 pixels
Height                         : 1 892 pixels
Display aspect ratio           : 2.025
Frame rate mode                : Constant
Frame rate                     : 29.000 FPS
Color space                    : YUV
Chroma subsampling             : 4:2:0
Bit depth                      : 8 bits
Scan type                      : Progressive
Bits/(Pixel*Frame)             : 0.076
Stream size                    : 193 MiB (99%)
Writing library                : x264 core 148
Encoding settings              : cabac=1 / ref=3 / deblock=1:0:0 / analyse=0x3:0x113 / me=hex / subme=7 / psy=1 / psy_rd=1.00:0.00 / mixed_ref=1 / me_range=16 / chroma_me=1 / trellis=1 / 8x8dct=1 / cqm=0 / deadzone=21,11 / fast_pskip=1 / chroma_qp_offset=-2 / threads=6 / lookahead_threads=1 / sliced_threads=0 / nr=0 / decimate=1 / interlaced=0 / bluray_compat=0 / constrained_intra=0 / bframes=3 / b_pyramid=2 / b_adapt=1 / b_bias=0 / direct=1 / weightb=1 / open_gop=0 / weightp=2 / keyint=250 / keyint_min=25 / scenecut=40 / intra_refresh=0 / rc_lookahead=40 / rc=abr / mbtree=1 / bitrate=16000 / ratetol=1.0 / qcomp=0.60 / qpmin=0 / qpmax=69 / qpstep=4 / ip_ratio=1.40 / aq=1:1.00
Language                       : English
Codec configuration box        : avcC

Audio
ID                             : 2
Format                         : AAC LC
Format/Info                    : Advanced Audio Codec Low Complexity
Codec ID                       : mp4a-40-2
Duration                       : 1 min 43 s
Duration_LastFrame             : -4 ms
Bit rate mode                  : Constant
Bit rate                       : 129 kb/s
Channel(s)                     : 2 channels
Channel layout                 : L R
Sampling rate                  : 44.1 kHz
Frame rate                     : 43.066 FPS (1024 SPF)
Compression mode               : Lossy
Stream size                    : 1.58 MiB (1%)
Language                       : English
Default                        : Yes
Alternate group                : 1


网盘下载失效不补:链接: https://pan.baidu.com/s/149-7u71IMLVKXslOc1_YrA
****此区域为收费内容****    需支付 15 金币后可查看立即购买





.

上一篇:2019韩国比基尼健美比赛现场实拍136[2160P/MP4/169MB]
下一篇:2019韩国比基尼健美比赛现场实拍138 [2160P /MP4/280MB]
回复

使用道具 举报

53

主题

1153

帖子

3287

积分

4K家园VIP

Rank: 9Rank: 9Rank: 9

积分
3287
发表于 2019-8-2 13:45:15 | 显示全部楼层
珍爱生命,果断回帖。
回复 支持 反对

使用道具 举报

1

主题

450

帖子

3583

积分

4K家园VIP

Rank: 9Rank: 9Rank: 9

积分
3583
QQ
发表于 2019-8-2 20:19:42 | 显示全部楼层
果断支持了!!
回复 支持 反对

使用道具 举报

0

主题

694

帖子

3794

积分

中级会员

Rank: 4

积分
3794
发表于 2019-8-3 09:46:31 | 显示全部楼层
感谢分享
回复

使用道具 举报

0

主题

5

帖子

18

积分

新手上路

Rank: 1

积分
18
发表于 2019-8-3 10:44:34 | 显示全部楼层

楼主太厉害了!楼主,I*老*虎*U!我觉得4K家园真是个好地方!
回复 支持 反对

使用道具 举报

1

主题

863

帖子

2607

积分

4K家园VIP

Rank: 9Rank: 9Rank: 9

积分
2607
发表于 2019-8-3 22:56:52 | 显示全部楼层
分享的不错,希望楼主继续分享
回复 支持 反对

使用道具 举报

0

主题

830

帖子

2502

积分

4K家园VIP

Rank: 9Rank: 9Rank: 9

积分
2502
发表于 2019-8-4 20:15:47 | 显示全部楼层
发发呆,回回帖,工作结束~
回复 支持 反对

使用道具 举报

0

主题

977

帖子

2943

积分

4K家园VIP

Rank: 9Rank: 9Rank: 9

积分
2943
发表于 2019-8-5 18:14:41 来自手机 | 显示全部楼层
4K家园资源最近貌似越来越多了
回复 支持 反对

使用道具 举报

0

主题

1049

帖子

2953

积分

4K家园VIP

Rank: 9Rank: 9Rank: 9

积分
2953
发表于 2019-8-5 22:42:58 | 显示全部楼层
我也来顶一下..
回复 支持 反对

使用道具 举报

0

主题

694

帖子

3794

积分

中级会员

Rank: 4

积分
3794
发表于 2019-8-9 08:22:26 | 显示全部楼层
感谢分享
回复

使用道具 举报

您需要登录后才可以回帖 登录 | 立即注册

本版积分规则

精彩图文
关闭

站长推荐上一条 /1 下一条

Archiver|手机版|TAG|Sitemap|新帖|专题|联系我们:邮箱: 4kjia.com@gmail.com   

4k家园   ©2019