[4K美女视频] 2019韩国比基尼健美比赛现场实拍138 [2160P /MP4/280MB]

[复制链接]

1223

主题

1369

帖子

9363

积分

超级版主

Rank: 8Rank: 8

积分
9363
 楼主| 发表于 2019-8-3 10:24:35 | 显示全部楼层 |阅读模式

[韩国比基尼健美比赛现场实拍138].mp4_20190802_132938.438.jpg [韩国比基尼健美比赛现场实拍138].mp4_20190802_133003.374.jpg [韩国比基尼健美比赛现场实拍138].mp4_20190802_133013.678.jpg [韩国比基尼健美比赛现场实拍138].mp4_20190802_133048.302.jpg [韩国比基尼健美比赛现场实拍138].mp4.jpg

General
Complete name                  : 4K视频\[韩国比基尼健美比赛现场实拍138].mp4
Format                         : MPEG-4
Format profile                 : Base Media
Codec ID                       : isom (isom/iso2/avc1/mp41)
File size                      : 281 MiB
Duration                       : 2 min 31 s
Overall bit rate               : 15.6 Mb/s
Writing application            : Lavf58.12.100

Video
ID                             : 1
Format                         : AVC
Format/Info                    : Advanced Video Codec
Format profile                 : High@L5.1
Format settings                : CABAC / 4 Ref Frames
Format settings, CABAC         : Yes
Format settings, Reference fra : 4 frames
Codec ID                       : avc1
Codec ID/Info                  : Advanced Video Coding
Duration                       : 2 min 31 s
Bit rate                       : 15.0 Mb/s
Width                          : 3 840 pixels
Height                         : 2 160 pixels
Display aspect ratio           : 16:9
Frame rate mode                : Constant
Frame rate                     : 29.000 FPS
Color space                    : YUV
Chroma subsampling             : 4:2:0
Bit depth                      : 8 bits
Scan type                      : Progressive
Bits/(Pixel*Frame)             : 0.062
Stream size                    : 278 MiB (99%)
Writing library                : x264 core 148
Encoding settings              : cabac=1 / ref=3 / deblock=1:0:0 / analyse=0x3:0x113 / me=hex / subme=7 / psy=1 / psy_rd=1.00:0.00 / mixed_ref=1 / me_range=16 / chroma_me=1 / trellis=1 / 8x8dct=1 / cqm=0 / deadzone=21,11 / fast_pskip=1 / chroma_qp_offset=-2 / threads=6 / lookahead_threads=1 / sliced_threads=0 / nr=0 / decimate=1 / interlaced=0 / bluray_compat=0 / constrained_intra=0 / bframes=3 / b_pyramid=2 / b_adapt=1 / b_bias=0 / direct=1 / weightb=1 / open_gop=0 / weightp=2 / keyint=250 / keyint_min=25 / scenecut=40 / intra_refresh=0 / rc_lookahead=40 / rc=abr / mbtree=1 / bitrate=15000 / ratetol=1.0 / qcomp=0.60 / qpmin=0 / qpmax=69 / qpstep=4 / ip_ratio=1.40 / aq=1:1.00
Language                       : English
Codec configuration box        : avcC

Audio
ID                             : 2
Format                         : AAC LC
Format/Info                    : Advanced Audio Codec Low Complexity
Codec ID                       : mp4a-40-2
Duration                       : 2 min 31 s
Duration_LastFrame             : -23 ms
Bit rate mode                  : Constant
Bit rate                       : 129 kb/s
Channel(s)                     : 2 channels
Channel layout                 : L R
Sampling rate                  : 44.1 kHz
Frame rate                     : 43.066 FPS (1024 SPF)
Compression mode               : Lossy
Stream size                    : 2.32 MiB (1%)
Language                       : English
Default                        : Yes
Alternate group                : 1




网盘下载失效不补:链接: https://pan.baidu.com/s/1LR-WF2dO9GMI2Nmv_gD4GQ
****此区域为收费内容****    需支付 15 金币后可查看立即购买





.

上一篇:2019大佳河滨公园 比基尼泳装美女1 [2160P /MP4/194MB]
下一篇:2019比基尼泳装美女西门町外拍10 布布酱 [2160P /MP4/262MB]
回复

使用道具 举报

0

主题

977

帖子

2943

积分

4K家园VIP

Rank: 9Rank: 9Rank: 9

积分
2943
发表于 2019-8-3 10:24:41 | 显示全部楼层
支持,楼下的跟上哈~
回复 支持 反对

使用道具 举报

0

主题

5

帖子

18

积分

新手上路

Rank: 1

积分
18
发表于 2019-8-3 10:43:42 | 显示全部楼层
棒子妞真不敢恭维
回复 支持 反对

使用道具 举报

0

主题

3

帖子

26

积分

新手上路

Rank: 1

积分
26
发表于 2019-8-3 14:44:44 | 显示全部楼层
楼主发贴辛苦了,谢谢楼主分享!我觉得来4K家园是注册对了!
回复 支持 反对

使用道具 举报

1

主题

449

帖子

3580

积分

4K家园VIP

Rank: 9Rank: 9Rank: 9

积分
3580
QQ
发表于 2019-8-3 20:28:23 | 显示全部楼层
果断支持了!!
回复 支持 反对

使用道具 举报

0

主题

948

帖子

2858

积分

4K家园VIP

Rank: 9Rank: 9Rank: 9

积分
2858
发表于 2019-8-3 21:53:15 | 显示全部楼层
元芳你怎么看?
回复 支持 反对

使用道具 举报

0

主题

694

帖子

3794

积分

中级会员

Rank: 4

积分
3794
发表于 2019-8-4 09:16:58 | 显示全部楼层
谢谢分享
回复

使用道具 举报

40

主题

1115

帖子

3143

积分

4K家园VIP

Rank: 9Rank: 9Rank: 9

积分
3143
发表于 2019-8-4 19:05:00 来自手机 | 显示全部楼层
这个资源我记得是一套的,楼主还有没有
回复 支持 反对

使用道具 举报

1

主题

973

帖子

2939

积分

4K家园VIP

Rank: 9Rank: 9Rank: 9

积分
2939
发表于 2019-8-5 03:03:02 | 显示全部楼层
你们要是有4K资源记得分享,别小气
回复 支持 反对

使用道具 举报

0

主题

948

帖子

2856

积分

4K家园VIP

Rank: 9Rank: 9Rank: 9

积分
2856
发表于 2019-8-6 13:33:42 来自手机 | 显示全部楼层
多谢楼主分享
回复 支持 反对

使用道具 举报

您需要登录后才可以回帖 登录 | 立即注册

本版积分规则

精彩图文
关闭

站长推荐上一条 /1 下一条

Archiver|手机版|TAG|Sitemap|新帖|专题|联系我们:邮箱: 4kjia.com@gmail.com   

4k家园   ©2019