[4K美女视频] 2019比基尼泳装美女西门町外拍10 布布酱 [2160P /MP4/262MB]

[复制链接]

1083

主题

1222

帖子

7692

积分

超级版主

Rank: 8Rank: 8

积分
7692
 楼主| 发表于 2019-8-4 09:49:32 | 显示全部楼层 |阅读模式

2019比基尼泳装美女西门町外拍10 布布酱.mp4_20190802_134040.095.jpg 2019比基尼泳装美女西门町外拍10 布布酱.mp4_20190802_134048.430.jpg 2019比基尼泳装美女西门町外拍10 布布酱.mp4_20190802_134113.469.jpg 2019比基尼泳装美女西门町外拍10 布布酱.mp4_20190802_134119.614.jpg 2019比基尼泳装美女西门町外拍10 布布酱.mp4.jpg

General
Complete name                  : D:\360安全浏览器下载\4K视频\2019比基尼泳装美女西门町外拍10 布布酱.mp4
Format                         : MPEG-4
Format profile                 : Base Media
Codec ID                       : isom (isom/iso2/avc1/mp41)
File size                      : 263 MiB
Duration                       : 3 min 7 s
Overall bit rate               : 11.8 Mb/s
Writing application            : Lavf58.12.100

Video
ID                             : 1
Format                         : AVC
Format/Info                    : Advanced Video Codec
Format profile                 : [email protected]
Format settings                : CABAC / 4 Ref Frames
Format settings, CABAC         : Yes
Format settings, Reference fra : 4 frames
Codec ID                       : avc1
Codec ID/Info                  : Advanced Video Coding
Duration                       : 3 min 7 s
Bit rate                       : 12.0 Mb/s
Width                          : 3 836 pixels
Height                         : 1 884 pixels
Display aspect ratio           : 2.036
Frame rate mode                : Constant
Frame rate                     : 29.000 FPS
Color space                    : YUV
Chroma subsampling             : 4:2:0
Bit depth                      : 8 bits
Scan type                      : Progressive
Bits/(Pixel*Frame)             : 0.057
Stream size                    : 260 MiB (99%)
Writing library                : x264 core 148
Encoding settings              : cabac=1 / ref=3 / deblock=1:0:0 / analyse=0x3:0x113 / me=hex / subme=7 / psy=1 / psy_rd=1.00:0.00 / mixed_ref=1 / me_range=16 / chroma_me=1 / trellis=1 / 8x8dct=1 / cqm=0 / deadzone=21,11 / fast_pskip=1 / chroma_qp_offset=-2 / threads=6 / lookahead_threads=1 / sliced_threads=0 / nr=0 / decimate=1 / interlaced=0 / bluray_compat=0 / constrained_intra=0 / bframes=3 / b_pyramid=2 / b_adapt=1 / b_bias=0 / direct=1 / weightb=1 / open_gop=0 / weightp=2 / keyint=250 / keyint_min=25 / scenecut=40 / intra_refresh=0 / rc_lookahead=40 / rc=abr / mbtree=1 / bitrate=12000 / ratetol=1.0 / qcomp=0.60 / qpmin=0 / qpmax=69 / qpstep=4 / ip_ratio=1.40 / aq=1:1.00
Language                       : English
Codec configuration box        : avcC

Audio
ID                             : 2
Format                         : AAC LC
Format/Info                    : Advanced Audio Codec Low Complexity
Codec ID                       : mp4a-40-2
Duration                       : 3 min 7 s
Bit rate mode                  : Constant
Bit rate                       : 129 kb/s
Channel(s)                     : 2 channels
Channel layout                 : L R
Sampling rate                  : 44.1 kHz
Frame rate                     : 43.066 FPS (1024 SPF)
Compression mode               : Lossy
Stream size                    : 2.88 MiB (1%)
Language                       : English
Default                        : Yes
Alternate group                : 1



网盘下载失效不补:链接: https://pan.baidu.com/s/1OOgfIWDnFxGdh1rfREnJ6g
****此区域为收费内容****    需支付 15 金币后可查看立即购买





.

上一篇:2019韩国比基尼健美比赛现场实拍138 [2160P /MP4/280MB]
下一篇:2019首尔车展嫩模李恩惠-2首尔马达秀 [2160P /MP4/161MB]
回复

使用道具 举报

0

主题

946

帖子

2852

积分

4K家园VIP

Rank: 9Rank: 9Rank: 9

积分
2852
发表于 2019-8-4 09:49:39 | 显示全部楼层
楼下的接上
回复 支持 反对

使用道具 举报

0

主题

3

帖子

26

积分

新手上路

Rank: 1

积分
26
发表于 2019-8-4 10:33:51 | 显示全部楼层
看着不错,我喜欢
回复 支持 反对

使用道具 举报

0

主题

3

帖子

26

积分

新手上路

Rank: 1

积分
26
发表于 2019-8-4 10:34:05 | 显示全部楼层
看着不错,我喜欢
回复 支持 反对

使用道具 举报

0

主题

376

帖子

2669

积分

4K家园VIP

Rank: 9Rank: 9Rank: 9

积分
2669
QQ
发表于 2019-8-4 10:57:38 | 显示全部楼层
老大辛苦了!!
回复 支持 反对

使用道具 举报

53

主题

1112

帖子

3146

积分

4K家园VIP

Rank: 9Rank: 9Rank: 9

积分
3146
发表于 2019-8-4 14:18:52 | 显示全部楼层
路过的帮顶
回复 支持 反对

使用道具 举报

0

主题

8

帖子

36

积分

新手上路

Rank: 1

积分
36
发表于 2019-8-4 15:49:36 | 显示全部楼层
不错,谢谢楼主
回复 支持 反对

使用道具 举报

0

主题

12

帖子

59

积分

新手上路

Rank: 1

积分
59
发表于 2019-8-4 15:56:17 | 显示全部楼层
楼主发贴辛苦了,谢谢楼主分享!我觉得来4K家园是注册对了!
回复 支持 反对

使用道具 举报

0

主题

2

帖子

19

积分

新手上路

Rank: 1

积分
19
发表于 2019-8-4 19:54:40 | 显示全部楼层
不错,谢谢楼主
回复 支持 反对

使用道具 举报

0

主题

1225

帖子

3263

积分

4K家园VIP

Rank: 9Rank: 9Rank: 9

积分
3263
发表于 2019-8-4 22:47:30 来自手机 | 显示全部楼层
4K家园不错,希望这种资源越多越好
回复 支持 反对

使用道具 举报

您需要登录后才可以回帖 登录 | 立即注册

本版积分规则

精彩图文
关闭

站长推荐上一条 /1 下一条

4k家园   ©2019