[4K美女视频] 2019首尔车展嫩模李恩惠-2首尔马达秀 [2160P /MP4/161MB]

[复制链接]

1079

主题

1218

帖子

7648

积分

超级版主

Rank: 8Rank: 8

积分
7648
 楼主| 发表于 2019-8-2 14:07:18 | 显示全部楼层 |阅读模式

2019首尔车展嫩模李恩惠-2首尔马达秀.mp4_20190802_135539.469.jpg 2019首尔车展嫩模李恩惠-2首尔马达秀.mp4_20190802_135547.941.jpg 2019首尔车展嫩模李恩惠-2首尔马达秀.mp4_20190802_135604.118.jpg 2019首尔车展嫩模李恩惠-2首尔马达秀.mp4_20190802_135611.152.jpg 2019首尔车展嫩模李恩惠-2首尔马达秀.mp4.jpg

General
Complete name                  : D:\360安全浏览器下载\4K视频\2019首尔车展嫩模李恩惠-2首尔马达秀.mp4
Format                         : MPEG-4
Format profile                 : Base Media
Codec ID                       : isom (isom/iso2/avc1/mp41)
File size                      : 162 MiB
Duration                       : 2 min 18 s
Overall bit rate               : 9 779 kb/s
Writing application            : EX1.5.0(C1.0.9)

Video
ID                             : 1
Format                         : AVC
Format/Info                    : Advanced Video Codec
Format profile                 : [email protected]
Format settings                : CABAC / 3 Ref Frames
Format settings, CABAC         : Yes
Format settings, Reference fra : 3 frames
Codec ID                       : avc1
Codec ID/Info                  : Advanced Video Coding
Duration                       : 2 min 18 s
Bit rate                       : 9 586 kb/s
Width                          : 2 160 pixels
Height                         : 3 840 pixels
Display aspect ratio           : 0.563
Frame rate mode                : Constant
Frame rate                     : 29.970 (29970/1000) FPS
Color space                    : YUV
Chroma subsampling             : 4:2:0
Bit depth                      : 8 bits
Scan type                      : Progressive
Bits/(Pixel*Frame)             : 0.039
Stream size                    : 158 MiB (98%)
Color range                    : Limited
Color primaries                : BT.709
Transfer characteristics       : BT.709
Matrix coefficients            : BT.709
Codec configuration box        : avcC

Audio
ID                             : 2
Format                         : AAC LC
Format/Info                    : Advanced Audio Codec Low Complexity
Codec ID                       : mp4a-40-2
Duration                       : 2 min 18 s
Bit rate mode                  : Constant
Bit rate                       : 192 kb/s
Channel(s)                     : 2 channels
Channel layout                 : L R
Sampling rate                  : 48.0 kHz
Frame rate                     : 46.875 FPS (1024 SPF)
Compression mode               : Lossy
Stream size                    : 3.18 MiB (2%)
Default                        : Yes
Alternate group                : 1



网盘下载失效不补:链接: https://pan.baidu.com/s/1b84ctUe8xRrpWc2ohMmCZA
****此区域为收费内容****    需支付 15 金币后可查看立即购买




.

上一篇:2019比基尼泳装美女西门町外拍10 布布酱 [2160P /MP4/262MB]
下一篇:4K视频\韩国女团(3ROOT) 2 [2160P /MP4/450MB]
回复

使用道具 举报

0

主题

964

帖子

2738

积分

4K家园VIP

Rank: 9Rank: 9Rank: 9

积分
2738
发表于 2019-8-2 14:07:41 | 显示全部楼层
体验下4K版的
回复 支持 反对

使用道具 举报

192

主题

1255

帖子

3319

积分

4K家园VIP

Rank: 9Rank: 9Rank: 9

积分
3319
发表于 2019-8-2 17:11:18 来自手机 | 显示全部楼层
感谢分享
回复 支持 反对

使用道具 举报

0

主题

375

帖子

2654

积分

4K家园VIP

Rank: 9Rank: 9Rank: 9

积分
2654
QQ
发表于 2019-8-2 20:21:10 | 显示全部楼层
强烈支持了!!
回复 支持 反对

使用道具 举报

46

主题

1136

帖子

3216

积分

4K家园VIP

Rank: 9Rank: 9Rank: 9

积分
3216
发表于 2019-8-3 03:13:51 | 显示全部楼层
珍爱生命,果断回帖。
回复 支持 反对

使用道具 举报

0

主题

512

帖子

2759

积分

中级会员

Rank: 4

积分
2759
发表于 2019-8-3 09:45:51 | 显示全部楼层
感谢分享
回复

使用道具 举报

0

主题

977

帖子

2783

积分

4K家园VIP

Rank: 9Rank: 9Rank: 9

积分
2783
发表于 2019-8-4 06:36:15 | 显示全部楼层
支持支持再支持
回复 支持 反对

使用道具 举报

0

主题

12

帖子

83

积分

新手上路

Rank: 1

积分
83
发表于 2019-8-5 16:35:59 | 显示全部楼层
支持支持再支持
回复 支持 反对

使用道具 举报

37

主题

1105

帖子

3089

积分

4K家园VIP

Rank: 9Rank: 9Rank: 9

积分
3089
发表于 2019-8-5 21:48:59 | 显示全部楼层
高手云集 果断围观
回复 支持 反对

使用道具 举报

您需要登录后才可以回帖 登录 | 立即注册

本版积分规则

精彩图文
关闭

站长推荐上一条 /1 下一条

4k家园   ©2019