[4K美女视频] 4K视频\韩国女团(3ROOT) 2 [2160P /MP4/450MB]

[复制链接]

1223

主题

1369

帖子

9363

积分

超级版主

Rank: 8Rank: 8

积分
9363
 楼主| 发表于 2019-8-5 21:03:58 | 显示全部楼层 |阅读模式

韩国女团(3ROOT) 2.mp4_20190802_134850.302.jpg 韩国女团(3ROOT) 2.mp4_20190802_134859.894.jpg 韩国女团(3ROOT) 2.mp4_20190802_134906.382.jpg 韩国女团(3ROOT) 2.mp4_20190802_134912.031.jpg 韩国女团(3ROOT) 2.mp4.jpg

General
Complete name                  : 4K视频\韩国女团(3ROOT) 2.mp4
Format                         : MPEG-4
Format profile                 : Base Media
Codec ID                       : isom (isom/iso2/avc1/mp41)
File size                      : 450 MiB
Duration                       : 3 min 20 s
Overall bit rate               : 18.8 Mb/s
Writing application            : EX1.5.0(C1.0.9)

Video
ID                             : 1
Format                         : AVC
Format/Info                    : Advanced Video Codec
Format profile                 : High@L5.1
Format settings                : CABAC / 3 Ref Frames
Format settings, CABAC         : Yes
Format settings, Reference fra : 3 frames
Codec ID                       : avc1
Codec ID/Info                  : Advanced Video Coding
Duration                       : 3 min 20 s
Bit rate                       : 18.7 Mb/s
Width                          : 2 160 pixels
Height                         : 3 840 pixels
Display aspect ratio           : 0.563
Frame rate mode                : Constant
Frame rate                     : 29.970 (29970/1000) FPS
Color space                    : YUV
Chroma subsampling             : 4:2:0
Bit depth                      : 8 bits
Scan type                      : Progressive
Bits/(Pixel*Frame)             : 0.075
Stream size                    : 446 MiB (99%)
Color range                    : Limited
Color primaries                : BT.709
Transfer characteristics       : BT.709
Matrix coefficients            : BT.709
Codec configuration box        : avcC

Audio
ID                             : 2
Format                         : AAC LC
Format/Info                    : Advanced Audio Codec Low Complexity
Codec ID                       : mp4a-40-2
Duration                       : 3 min 20 s
Bit rate mode                  : Constant
Bit rate                       : 192 kb/s
Channel(s)                     : 2 channels
Channel layout                 : L R
Sampling rate                  : 48.0 kHz
Frame rate                     : 46.875 FPS (1024 SPF)
Compression mode               : Lossy
Stream size                    : 4.59 MiB (1%)
Default                        : Yes
Alternate group                : 1



网盘下载失效不补:链接: https://pan.baidu.com/s/1R4CtzHZTZHVBH4sFIGnn8Q
****此区域为收费内容****    需支付 15 金币后可查看立即购买





.

上一篇:2019首尔车展嫩模李恩惠-2首尔马达秀 [2160P /MP4/161MB]
下一篇:2019台湾动漫展白嫩比基尼美女 [2160P /MP4/243MB]
回复

使用道具 举报

36

主题

1138

帖子

3214

积分

4K家园VIP

Rank: 9Rank: 9Rank: 9

积分
3214
发表于 2019-8-5 21:04:19 | 显示全部楼层
我也顶起出售广告位
回复 支持 反对

使用道具 举报

1

主题

449

帖子

3580

积分

4K家园VIP

Rank: 9Rank: 9Rank: 9

积分
3580
QQ
发表于 2019-8-5 21:30:24 | 显示全部楼层
老大辛苦了!!
回复 支持 反对

使用道具 举报

0

主题

694

帖子

3794

积分

中级会员

Rank: 4

积分
3794
发表于 2019-8-5 22:19:13 | 显示全部楼层
谢谢分享
回复

使用道具 举报

1

主题

837

帖子

2533

积分

4K家园VIP

Rank: 9Rank: 9Rank: 9

积分
2533
发表于 2019-8-6 04:48:20 | 显示全部楼层
支持一下楼主,顶起来
回复 支持 反对

使用道具 举报

0

主题

694

帖子

3794

积分

中级会员

Rank: 4

积分
3794
发表于 2019-8-6 12:56:57 | 显示全部楼层
popoaiks
感谢分享
回复 支持 反对

使用道具 举报

50

主题

1080

帖子

3102

积分

4K家园VIP

Rank: 9Rank: 9Rank: 9

积分
3102
发表于 2019-8-6 21:10:44 | 显示全部楼层
大人,此事必有蹊跷!
回复 支持 反对

使用道具 举报

0

主题

1230

帖子

3270

积分

4K家园VIP

Rank: 9Rank: 9Rank: 9

积分
3270
发表于 2019-8-8 15:24:28 | 显示全部楼层
前排支持下了哦~
回复 支持 反对

使用道具 举报

0

主题

977

帖子

2943

积分

4K家园VIP

Rank: 9Rank: 9Rank: 9

积分
2943
发表于 2019-8-8 17:53:46 | 显示全部楼层
这么强,支持楼主,佩服
回复 支持 反对

使用道具 举报

0

主题

694

帖子

3794

积分

中级会员

Rank: 4

积分
3794
发表于 2019-8-9 08:22:35 | 显示全部楼层
感谢分享
回复

使用道具 举报

您需要登录后才可以回帖 登录 | 立即注册

本版积分规则

精彩图文
关闭

站长推荐上一条 /1 下一条

Archiver|手机版|TAG|Sitemap|新帖|专题|联系我们:邮箱: 4kjia.com@gmail.com   

4k家园   ©2019