[4K欧美MV] 2022 Emilia - 四点二十分 [2160P/MP4/1.29GB]

  [复制链接]

主题

帖子

0

积分

超级版主

Rank: 8Rank: 8

积分
0
 楼主| 发表于 2022-10-3 20:15:49 | 显示全部楼层 |阅读模式
本帖最后由 叽里呱啦 于 2022-10-3 20:17 编辑

Emilia - 四点二十分.mp4_20221003_200248.827.jpg Emilia - 四点二十分.mp4_20221003_200345.490.jpg Emilia - 四点二十分.mp4_20221003_200520.867.jpg Emilia - 四点二十分.mp4_20221003_200604.778.jpg Emilia - 四点二十分.mp4_20221003_200701.747.jpg Emilia - 四点二十分.mp4_20221003_200720.546.jpg

General
Complete name                  : G:\qB下载\[4K欧美MV] 2022 Emilia - 四点二十分
Format                         : MPEG-4
Format profile                 : Base Media / Version 2
Codec ID                       : mp42 (mp42/mp41)
File size                      : 1.30 GiB
Duration                       : 2 min 16 s
Overall bit rate mode          : Variable
Overall bit rate               : 81.9 Mb/s
Encoded date                   : UTC 2022-03-24 23:41:21
Tagged date                    : UTC 2022-03-24 23:42:03
TIM                            : 00:00:00:00
TSC                            : 25
TSZ                            : 1

Video
ID                             : 1
Format                         : AVC
Format/Info                    : Advanced Video Codec
Format profile                 : Main@L5.1
Format settings                : CABAC / 1 Ref Frames
Format settings, CABAC         : Yes
Format settings, Reference fra : 1 frame
Format settings, GOP           : M=1, N=30
Codec ID                       : avc1
Codec ID/Info                  : Advanced Video Coding
Duration                       : 2 min 16 s
Bit rate                       : 81.6 Mb/s
Width                          : 3 840 pixels
Height                         : 2 160 pixels
Display aspect ratio           : 16:9
Frame rate mode                : Constant
Frame rate                     : 25.000 FPS
Color space                    : YUV
Chroma subsampling             : 4:2:0
Bit depth                      : 8 bits
Scan type                      : Progressive
Bits/(Pixel*Frame)             : 0.393
Stream size                    : 1.29 GiB (100%)
Language                       : English
Encoded date                   : UTC 2022-03-24 23:41:21
Tagged date                    : UTC 2022-03-24 23:41:21
Codec configuration box        : avcC

Audio
ID                             : 2
Format                         : AAC LC
Format/Info                    : Advanced Audio Codec Low Complexity
Codec ID                       : mp4a-40-2
Duration                       : 2 min 16 s
Source duration                : 2 min 16 s
Bit rate mode                  : Variable
Bit rate                       : 317 kb/s
Maximum bit rate               : 421 kb/s
Channel(s)                     : 2 channels
Channel layout                 : L R
Sampling rate                  : 48.0 kHz
Frame rate                     : 46.875 FPS (1024 SPF)
Compression mode               : Lossy
Stream size                    : 5.15 MiB (0%)
Source stream size             : 5.15 MiB (0%)
Language                       : English
Encoded date                   : UTC 2022-03-24 23:41:21
Tagged date                    : UTC 2022-03-24 23:41:21

下载地址
PS:小水管制作不易,下载后请保持做种姿势,谢谢!
游客,如果您要查看本帖隐藏内容请回复







上一篇:[4K最新MV] 2022 Black Pink - 歇业 [2160P/MP4/903MB]
下一篇:[4K 欧美MV]奥利维亚·亚当斯-Dumb[2160P/MP4/420MB]
回复

使用道具 举报

48

主题

1592

帖子

4648

积分

4K家园VIP

Rank: 9Rank: 9Rank: 9

积分
4648
发表于 2022-10-3 20:15:55 | 显示全部楼层
在撸一遍。。。
回复 支持 反对

使用道具 举报

主题

帖子

2701

积分

注册会员

Rank: 2

积分
2701
发表于 2022-10-3 21:49:44 | 显示全部楼层
多谢楼主分享
回复 支持 反对

使用道具 举报

主题

帖子

31

积分

新手上路

Rank: 1

积分
31
发表于 2022-10-4 01:47:43 | 显示全部楼层
bucuobucuo
回复 支持 反对

使用道具 举报

1

主题

1657

帖子

4577

积分

4K家园VIP

Rank: 9Rank: 9Rank: 9

积分
4577
发表于 2022-10-6 11:32:32 | 显示全部楼层
顶起顶起顶起
回复 支持 反对

使用道具 举报

2

主题

1406

帖子

4038

积分

4K家园VIP

Rank: 9Rank: 9Rank: 9

积分
4038
发表于 2022-10-7 06:48:23 | 显示全部楼层
占位编辑
回复 支持 反对

使用道具 举报

81

主题

1621

帖子

4709

积分

4K家园VIP

Rank: 9Rank: 9Rank: 9

积分
4709
发表于 2022-10-7 18:47:10 来自手机 | 显示全部楼层
LZ是天才,坚定完毕
回复 支持 反对

使用道具 举报

0

主题

1412

帖子

4250

积分

4K家园VIP

Rank: 9Rank: 9Rank: 9

积分
4250
发表于 2022-10-7 18:49:29 | 显示全部楼层
前排顶起
回复 支持 反对

使用道具 举报

主题

帖子

18

积分

新手上路

Rank: 1

积分
18
发表于 2022-10-7 22:52:31 | 显示全部楼层
多谢楼主分享
回复 支持 反对

使用道具 举报

主题

帖子

6

积分

新手上路

Rank: 1

积分
6
发表于 2022-10-9 10:12:42 来自手机 | 显示全部楼层
666感谢感谢大佬无私奉献
回复 支持 反对

使用道具 举报

您需要登录后才可以回帖 登录 | 立即注册

本版积分规则

精彩图文
Archiver|手机版|TAG|Sitemap|新帖|专题|联系我们:邮箱: 4kjia.com@gmail.com   

4k家园   ©2019