[4K电影] 上帝的国度 / God's Country (2022) 4K高清版本下载

[复制链接]

主题

帖子

0

积分

超级版主

Rank: 8Rank: 8

积分
0
 楼主| 发表于 2022-10-4 21:16:31 | 显示全部楼层 |阅读模式
QQ图片20221004211439_副本.png

◎标  题 上帝的国度
◎片  名 God's Country
◎年  代 2022
◎产  地 美国
◎类  别 惊悚
◎语  言 英语
◎上映日期 2022-01-23(圣丹斯电影节) / 2022-09-16(美国)
◎IMDb评分 6.2/10 from 498 users 更新 : 2022-10-04
◎IMDb链接 https://www.imdb.com/title/tt11818818/
◎豆瓣评分 0/10 from 0 users
◎豆瓣链接 https://movie.douban.com/subject/34969834/
◎片  长 102分钟
◎导  演 Julian A. Higgins Julian A. Higgins
◎编  剧 Julian A. Higgins Julian A. Higgins / 谢伊·奥邦纳 Shaye Ogbonna / 朱利安·希金斯 Julian Higgins / James Lee Burke James Lee Burke
◎演  员 坦迪·牛顿 Thandiwe Newton
       塔娜亚·比蒂 Tanaya Beatty
       卡伊·伦诺克斯 Kai Lennox
       乔利斯·贾斯基 Joris Jarsky
       杰佛逊·怀特 Jefferson White
       杰里米·博布 Jeremy Bobb
       特拉维斯·布鲁耶 Travis W Bruyer

◎简  介

  坦迪·牛顿将主演新片[上帝的国度](God’s Country,暂译)。朱利安·希金斯执导,希金斯与谢伊·奥邦纳([下层人])共同操刀剧本。该片改编自James Lee Burke创作的短篇故事《冬日之光》,讲述在美国西部山区阴冷的冬季,牛顿饰演的大学教授,独自生活在国家森林的边缘。一天,两名猎人闯入了她的土地,这引发了一场危险的较量。影片将在本周于蒙大拿开拍。

Video
ID : 1
Format : HEVC
Format/Info : High Efficiency Video Coding
Format profile : Main 10@L5@High
Codec ID : V_MPEGH/ISO/HEVC
Duration : 1 h 42 min
Bit rate : 11.9 Mb/s
Width : 3 836 pixels
Height : 2 072 pixels
Display aspect ratio : 1.85:1
Frame rate mode : Constant
Frame rate : 23.976 FPS
Color space : YUV
Chroma subsampling : 4:2:0
Bit depth : 10 bits
Bits/(Pixel*Frame) : 0.063
Stream size : 8.53 GiB (97%)
Language : English
Default : Yes
Forced : No
Color range : Limited
Color primaries : BT.709
Transfer characteristics : BT.709
Matrix coefficients : BT.709

Audio
ID : 2
Format : AC-3
Format/Info : Audio Coding 3
Commercial name : Dolby Digital
Codec ID : A_AC3
Duration : 1 h 42 min
Bit rate mode : Constant
Bit rate : 384 kb/s
Channel(s) : 6 channels
Channel layout : L R C LFE Ls Rs
Sampling rate : 48.0 kHz
Frame rate : 31.250 FPS (1536 SPF)
Compression mode : Lossy
Stream size : 281 MiB (3%)
Language : English
Service kind : Complete Main
Default : Yes
Forced : No

Text #1
ID : 3
Format : UTF-8
Codec ID : S_TEXT/UTF8
Codec ID/Info : UTF-8 Plain Text
Duration : 1 h 37 min
Bit rate : 40 b/s
Frame rate : 0.170 FPS
Count of elements : 1000
Stream size : 29.2 KiB (0%)
Title : SDH
Language : English
Default : No
Forced : No

Text #2
ID : 4
Format : UTF-8
Codec ID : S_TEXT/UTF8
Codec ID/Info : UTF-8 Plain Text
Duration : 1 h 30 min
Bit rate : 37 b/s
Frame rate : 0.143 FPS
Count of elements : 780
Stream size : 24.7 KiB (0%)
Language : English
Default : No
Forced : No

Menu
00:00:00.000 : en:Chapter 01
00:11:45.830 : en:Chapter 02
00:21:46.931 : en:Chapter 03
00:33:52.657 : en:Chapter 04
00:42:16.327 : en:Chapter 05
00:53:45.141 : en:Chapter 06
01:08:59.889 : en:Chapter 07
01:18:36.049 : en:Chapter 08
01:31:12.681 : en:Chapter 09
01:39:04.736 : en:Chapter 10

为了更好体验下载、推荐使用qBittorrent、uTorrent、BitComet等下载软件,有条件的推荐115或会员下载软件

下载地址:


游客,如果您要查看本帖隐藏内容请回复





上一篇:沉默的双胞胎 / Silent Twins (2022) 4K高清版本下载
下一篇:惊心食人族:重生/Jeepers Creepers: Reborn (2022) 4K高清版本下载
回复

使用道具 举报

0

主题

1461

帖子

4203

积分

4K家园VIP

Rank: 9Rank: 9Rank: 9

积分
4203
发表于 2022-10-4 21:16:35 | 显示全部楼层
路过
回复 支持 反对

使用道具 举报

3

主题

1789

帖子

4907

积分

4K家园VIP

Rank: 9Rank: 9Rank: 9

积分
4907
发表于 2022-10-6 14:50:47 来自手机 | 显示全部楼层
沙发位出租,
回复 支持 反对

使用道具 举报

主题

帖子

45

积分

新手上路

Rank: 1

积分
45
发表于 2022-10-6 15:36:16 | 显示全部楼层
thank you very much
回复 支持 反对

使用道具 举报

56

主题

1531

帖子

4449

积分

4K家园VIP

Rank: 9Rank: 9Rank: 9

积分
4449
发表于 2022-10-11 08:45:47 | 显示全部楼层
广告位,,坐下看看
回复 支持 反对

使用道具 举报

头像被屏蔽

主题

帖子

1017

积分

禁止访问

积分
1017
发表于 2022-10-11 11:55:12 | 显示全部楼层
提示: 作者被禁止或删除 内容自动屏蔽
回复

使用道具 举报

3

主题

1674

帖子

4667

积分

4K家园VIP

Rank: 9Rank: 9Rank: 9

积分
4667
发表于 2022-10-17 07:43:47 | 显示全部楼层
好,很好,非常好!
回复 支持 反对

使用道具 举报

59

主题

1613

帖子

4632

积分

4K家园VIP

Rank: 9Rank: 9Rank: 9

积分
4632
发表于 2022-10-17 13:55:23 | 显示全部楼层
这么强,支持楼主,佩服
回复 支持 反对

使用道具 举报

您需要登录后才可以回帖 登录 | 立即注册

本版积分规则

精彩图文
Archiver|手机版|TAG|Sitemap|新帖|专题|联系我们:邮箱: 4kjia.com@gmail.com   

4k家园   ©2019