[4K电影] 惊心食人族:重生/Jeepers Creepers: Reborn (2022) 4K高清版本下载

[复制链接]

主题

帖子

0

积分

超级版主

Rank: 8Rank: 8

积分
0
 楼主| 发表于 2022-10-4 21:47:35 | 显示全部楼层 |阅读模式
QQ图片20221004213258_副本.png

◎标  题 惊心食人族:重生
◎片  名 Jeepers Creepers: Reborn
◎年  代 2022
◎产  地 美国 / 英国 / 芬兰
◎类  别 悬疑 / 惊悚 / 恐怖
◎语  言 英语
◎上映日期 2022-09-19(美国)
◎IMDb评分 2.7/10 from 1464 users 更新 : 2022-10-04
◎IMDb链接 https://www.imdb.com/title/tt14121726/
◎豆瓣评分 0/10 from 0 users
◎豆瓣链接 https://movie.douban.com/subject/35410041/
◎片  长 88分钟
◎导  演 提莫·沃伦索拉 Timo Vuorensola
◎编  剧 肖恩-迈克尔·阿尔戈 Sean-Michael Argo
◎演  员 悉尼·克雷文 Sydney Craven
                   伊姆兰·亚当斯 Imran Adams
                   贾鲁·本杰明 Jarreau Benjamin
                   马特·巴克利 Matt Barkley
                   彼特·布洛克 Peter Brooke
                   海洋·纳瓦罗 Ocean Navarro
                   乔治娅·古德曼 Georgia Goodman
                   朱迪·麦克马伦 Jodie Mcmullen
                   亚历山大·哈尔萨尔 Alexander Halsall  
                   加布里埃尔·弗雷利奇 Gabriel Freilich
                   罗曼·福雷 Romain Faure
                   迪·华莱士 Dee Wallace
                   加里·格雷厄姆 Gary Graham
                   约瑟夫·坦纳·保罗 Joseph Tanner Paul
                   查理·本特利 Charlie Bentley
                   特里·伯德 Terry Bird
                   乔治·希德 George Hider
                   海伦·劳伦 Helen Lauren



◎简  介

  被迫和男友莱恩一起旅行,她开始体验到与城市神话《爬行动物》有关的预感。莱恩相信某种超自然的东西已经被召唤出来了,她是一切的中心。

Video
ID : 1
Format : HEVC
Format/Info : High Efficiency Video Coding
Format profile : Main 10@L5@High
HDR format : SMPTE ST 2086, HDR10 compatible
Codec ID : V_MPEGH/ISO/HEVC
Duration : 1 h 27 min
Bit rate : 14.3 Mb/s
Width : 3 836 pixels
Height : 1 600 pixels
Display aspect ratio : 2.40:1
Original display aspect ratio : 2.40:1
Frame rate mode : Constant
Frame rate : 23.976 FPS
Color space : YUV
Chroma subsampling : 4:2:0 (Type 2)
Bit depth : 10 bits
Bits/(Pixel*Frame) : 0.097
Stream size : 8.80 GiB (97%)
Default : Yes
Forced : No
Color range : Limited
Color primaries : BT.2020
Transfer characteristics : PQ
Matrix coefficients : BT.2020 non-constant
Mastering display color primaries : BT.2020
Mastering display luminance : min: 0.0050 cd/m2, max: 1000 cd/m2
Maximum Content Light Level : 10000 cd/m2
Maximum Frame-Average Light Level : 408 cd/m2

Audio
ID : 2
Format : AC-3
Format/Info : Audio Coding 3
Commercial name : Dolby Digital
Codec ID : A_AC3
Duration : 1 h 27 min
Bit rate mode : Constant
Bit rate : 384 kb/s
Channel(s) : 6 channels
Channel layout : L R C LFE Ls Rs
Sampling rate : 48.0 kHz
Frame rate : 31.250 FPS (1536 SPF)
Compression mode : Lossy
Stream size : 241 MiB (3%)
Language : English
Service kind : Complete Main
Default : Yes
Forced : No

Text #1
ID : 3
Format : UTF-8
Codec ID : S_TEXT/UTF8
Codec ID/Info : UTF-8 Plain Text
Duration : 1 h 27 min
Bit rate : 43 b/s
Frame rate : 0.220 FPS
Count of elements : 1157
Stream size : 28.2 KiB (0%)
Language : English
Default : Yes
Forced : No

Text #2
ID : 4
Format : UTF-8
Codec ID : S_TEXT/UTF8
Codec ID/Info : UTF-8 Plain Text
Duration : 1 h 27 min
Bit rate : 53 b/s
Frame rate : 0.281 FPS
Count of elements : 1478
Stream size : 34.4 KiB (0%)
Title : SDH
Language : English
Default : No
Forced : No

为了更好体验下载、推荐使用qBittorrent、uTorrent、BitComet等下载软件,有条件的推荐115或会员下载软件!

下载地址:


游客,如果您要查看本帖隐藏内容请回复

游客,如果您要查看本帖隐藏内容请回复

游客,如果您要查看本帖隐藏内容请回复

游客,如果您要查看本帖隐藏内容请回复






上一篇:上帝的国度 / God's Country (2022) 4K高清版本下载
下一篇:鬼玩人3:魔界英豪 / Army of Darkness (1992) 4K高清版本下载
回复

使用道具 举报

0

主题

1425

帖子

4291

积分

4K家园VIP

Rank: 9Rank: 9Rank: 9

积分
4291
发表于 2022-10-4 21:47:41 | 显示全部楼层
你们要是有4K资源记得分享,别小气
回复 支持 反对

使用道具 举报

0

主题

320

帖子

1902

积分

4K家园VIP

Rank: 9Rank: 9Rank: 9

积分
1902
QQ
发表于 2022-10-4 21:48:42 | 显示全部楼层
让 江小白 来看看帖子里藏了啥好东西~~~
回复 支持 反对

使用道具 举报

1

主题

1472

帖子

4260

积分

4K家园VIP

Rank: 9Rank: 9Rank: 9

积分
4260
发表于 2022-10-4 22:20:20 | 显示全部楼层
分享的不错,希望楼主继续分享
回复 支持 反对

使用道具 举报

主题

帖子

6

积分

新手上路

Rank: 1

积分
6
发表于 2022-10-5 10:08:36 来自手机 | 显示全部楼层
666希望继续分享好的电影
回复 支持 反对

使用道具 举报

主题

帖子

21

积分

新手上路

Rank: 1

积分
21
发表于 2022-10-5 11:06:39 | 显示全部楼层
真的太帅了,我就喜欢这样的
回复 支持 反对

使用道具 举报

主题

帖子

0

积分

新手上路

Rank: 1

积分
0
发表于 2022-10-5 11:17:30 | 显示全部楼层
谢谢楼主分享
回复 支持 反对

使用道具 举报

主题

帖子

33

积分

新手上路

Rank: 1

积分
33
发表于 2022-10-5 11:50:19 | 显示全部楼层
我想看的的
回复 支持 反对

使用道具 举报

62

主题

1659

帖子

4810

积分

4K家园VIP

Rank: 9Rank: 9Rank: 9

积分
4810
发表于 2022-10-5 13:27:22 | 显示全部楼层
没看懂
回复 支持 反对

使用道具 举报

主题

帖子

6

积分

新手上路

Rank: 1

积分
6
发表于 2022-10-5 18:17:39 | 显示全部楼层
THANKS
回复

使用道具 举报

您需要登录后才可以回帖 登录 | 立即注册

本版积分规则

精彩图文
Archiver|手机版|TAG|Sitemap|新帖|专题|联系我们:邮箱: 4kjia.com@gmail.com   

4k家园   ©2019