[4K美女视频] 2019 台湾动漫展性感比基尼妹子 [2160P /MP4/162MB]

[复制链接]

1079

主题

1218

帖子

7648

积分

超级版主

Rank: 8Rank: 8

积分
7648
 楼主| 发表于 2019-8-3 16:33:36 | 显示全部楼层 |阅读模式
台湾动漫展性感比基尼妹子.mp4_20190803_160904.599.jpg 台湾动漫展性感比基尼妹子.mp4_20190803_160941.136.jpg 台湾动漫展性感比基尼妹子.mp4_20190803_160947.015.jpg 台湾动漫展性感比基尼妹子.mp4_20190803_160955.719.jpg 台湾动漫展性感比基尼妹子.mp4.jpg

General
Complete name                  : 2019台湾动漫展性感比基尼妹子.mp4
Format                         : MPEG-4
Format profile                 : Base Media
Codec ID                       : isom (isom/iso2/avc1/mp41)
File size                      : 162 MiB
Duration                       : 1 min 35 s
Overall bit rate               : 14.3 Mb/s
Writing application            : Lavf58.12.100

Video
ID                             : 1
Format                         : AVC
Format/Info                    : Advanced Video Codec
Format profile                 : [email protected]
Format settings                : CABAC / 4 Ref Frames
Format settings, CABAC         : Yes
Format settings, Reference fra : 4 frames
Codec ID                       : avc1
Codec ID/Info                  : Advanced Video Coding
Duration                       : 1 min 35 s
Bit rate                       : 14.0 Mb/s
Width                          : 3 836 pixels
Height                         : 2 024 pixels
Display aspect ratio           : 1.895
Frame rate mode                : Constant
Frame rate                     : 29.000 FPS
Color space                    : YUV
Chroma subsampling             : 4:2:0
Bit depth                      : 8 bits
Scan type                      : Progressive
Bits/(Pixel*Frame)             : 0.062
Stream size                    : 161 MiB (99%)
Writing library                : x264 core 148
Encoding settings              : cabac=1 / ref=3 / deblock=1:0:0 / analyse=0x3:0x113 / me=hex / subme=7 / psy=1 / psy_rd=1.00:0.00 / mixed_ref=1 / me_range=16 / chroma_me=1 / trellis=1 / 8x8dct=1 / cqm=0 / deadzone=21,11 / fast_pskip=1 / chroma_qp_offset=-2 / threads=6 / lookahead_threads=1 / sliced_threads=0 / nr=0 / decimate=1 / interlaced=0 / bluray_compat=0 / constrained_intra=0 / bframes=3 / b_pyramid=2 / b_adapt=1 / b_bias=0 / direct=1 / weightb=1 / open_gop=0 / weightp=2 / keyint=250 / keyint_min=25 / scenecut=40 / intra_refresh=0 / rc_lookahead=40 / rc=abr / mbtree=1 / bitrate=14000 / ratetol=1.0 / qcomp=0.60 / qpmin=0 / qpmax=69 / qpstep=4 / ip_ratio=1.40 / aq=1:1.00
Language                       : English
Codec configuration box        : avcC

Audio
ID                             : 2
Format                         : AAC LC
Format/Info                    : Advanced Audio Codec Low Complexity
Codec ID                       : mp4a-40-2
Duration                       : 1 min 35 s
Bit rate mode                  : Constant
Bit rate                       : 129 kb/s
Channel(s)                     : 2 channels
Channel layout                 : L R
Sampling rate                  : 44.1 kHz
Frame rate                     : 43.066 FPS (1024 SPF)
Compression mode               : Lossy
Stream size                    : 1.46 MiB (1%)
Language                       : English
Default                        : Yes
Alternate group                : 1



网盘下载失效不补:链接: https://pan.baidu.com/s/1dew5e0YdKbFops8SOA-RDw
****此区域为收费内容****    需支付 15 金币后可查看立即购买




.

上一篇:2019 TRE比基尼美女躺树下旋转寿司 [2160P /MP4/336MB]
下一篇:2019 海水浴场 泳装T恤美女3 [2160P /MP4/134MB]
回复

使用道具 举报

0

主题

927

帖子

2791

积分

4K家园VIP

Rank: 9Rank: 9Rank: 9

积分
2791
发表于 2019-8-3 16:33:52 | 显示全部楼层
看帖要回,回帖才健康,在踩踩,楼主辛苦了!
回复 支持 反对

使用道具 举报

0

主题

375

帖子

2654

积分

4K家园VIP

Rank: 9Rank: 9Rank: 9

积分
2654
QQ
发表于 2019-8-3 20:26:46 | 显示全部楼层
下载支持了!!
回复 支持 反对

使用道具 举报

0

主题

4

帖子

29

积分

新手上路

Rank: 1

积分
29
发表于 2019-8-3 22:48:31 | 显示全部楼层
小米VR,前来
回复 支持 反对

使用道具 举报

0

主题

1282

帖子

3454

积分

4K家园VIP

Rank: 9Rank: 9Rank: 9

积分
3454
发表于 2019-8-5 20:11:54 来自手机 | 显示全部楼层
垃圾内容,路过为证。
回复 支持 反对

使用道具 举报

0

主题

766

帖子

2312

积分

4K家园VIP

Rank: 9Rank: 9Rank: 9

积分
2312
发表于 2019-8-7 09:18:20 | 显示全部楼层
楼主这资源不错,我收藏了
回复 支持 反对

使用道具 举报

55

主题

1129

帖子

3215

积分

4K家园VIP

Rank: 9Rank: 9Rank: 9

积分
3215
发表于 2019-8-8 22:07:07 | 显示全部楼层
4K版的应该更清晰吧
回复 支持 反对

使用道具 举报

0

主题

808

帖子

2444

积分

4K家园VIP

Rank: 9Rank: 9Rank: 9

积分
2444
发表于 2019-8-9 13:35:39 | 显示全部楼层
我也来顶一下..
回复 支持 反对

使用道具 举报

您需要登录后才可以回帖 登录 | 立即注册

本版积分规则

精彩图文
关闭

站长推荐上一条 /1 下一条

4k家园   ©2019