[4K美女视频] 2019 海水浴场 泳装T恤美女3 [2160P /MP4/134MB]

[复制链接]

1223

主题

1369

帖子

9363

积分

超级版主

Rank: 8Rank: 8

积分
9363
 楼主| 发表于 2019-8-5 21:03:42 | 显示全部楼层 |阅读模式

2019海水浴场 泳装T恤美女3.mp4_20190803_162038.455.jpg 2019海水浴场 泳装T恤美女3.mp4_20190803_162053.344.jpg 2019海水浴场 泳装T恤美女3.mp4_20190803_162059.383.jpg 2019海水浴场 泳装T恤美女3.mp4_20190803_162111.495.jpg 2019海水浴场 泳装T恤美女3.mp4.jpg

General
Complete name                  : 2019海水浴场 泳装T恤美女3.mp4
Format                         : MPEG-4
Format profile                 : Base Media
Codec ID                       : isom (isom/iso2/avc1/mp41)
File size                      : 135 MiB
Duration                       : 1 min 25 s
Overall bit rate               : 13.2 Mb/s
Writing application            : Lavf58.12.100

Video
ID                             : 1
Format                         : AVC
Format/Info                    : Advanced Video Codec
Format profile                 : High@L5.1
Format settings                : CABAC / 4 Ref Frames
Format settings, CABAC         : Yes
Format settings, Reference fra : 4 frames
Codec ID                       : avc1
Codec ID/Info                  : Advanced Video Coding
Duration                       : 1 min 25 s
Bit rate                       : 13.1 Mb/s
Nominal bit rate               : 15.0 Mb/s
Width                          : 3 836 pixels
Height                         : 1 892 pixels
Display aspect ratio           : 2.027
Frame rate mode                : Constant
Frame rate                     : 29.000 FPS
Color space                    : YUV
Chroma subsampling             : 4:2:0
Bit depth                      : 8 bits
Scan type                      : Progressive
Bits/(Pixel*Frame)             : 0.062
Stream size                    : 134 MiB (99%)
Writing library                : x264 core 148
Encoding settings              : cabac=1 / ref=3 / deblock=1:0:0 / analyse=0x3:0x113 / me=hex / subme=7 / psy=1 / psy_rd=1.00:0.00 / mixed_ref=1 / me_range=16 / chroma_me=1 / trellis=1 / 8x8dct=1 / cqm=0 / deadzone=21,11 / fast_pskip=1 / chroma_qp_offset=-2 / threads=6 / lookahead_threads=1 / sliced_threads=0 / nr=0 / decimate=1 / interlaced=0 / bluray_compat=0 / constrained_intra=0 / bframes=3 / b_pyramid=2 / b_adapt=1 / b_bias=0 / direct=1 / weightb=1 / open_gop=0 / weightp=2 / keyint=250 / keyint_min=25 / scenecut=40 / intra_refresh=0 / rc_lookahead=40 / rc=abr / mbtree=1 / bitrate=15000 / ratetol=1.0 / qcomp=0.60 / qpmin=0 / qpmax=69 / qpstep=4 / ip_ratio=1.40 / aq=1:1.00
Language                       : English
Codec configuration box        : avcC

Audio
ID                             : 2
Format                         : AAC LC
Format/Info                    : Advanced Audio Codec Low Complexity
Codec ID                       : mp4a-40-2
Duration                       : 1 min 25 s
Bit rate mode                  : Constant
Bit rate                       : 132 kb/s
Channel(s)                     : 2 channels
Channel layout                 : L R
Sampling rate                  : 44.1 kHz
Frame rate                     : 43.066 FPS (1024 SPF)
Compression mode               : Lossy
Stream size                    : 1.33 MiB (1%)
Language                       : English
Default                        : Yes
Alternate group                : 1



网盘下载失效不补:链接: https://pan.baidu.com/s/1ZAYDOcXBRYW4Dj61J_ZiNg
****此区域为收费内容****    需支付 15 金币后可查看立即购买







.

上一篇:2019 台湾动漫展性感比基尼妹子 [2160P /MP4/162MB]
下一篇:2019 TRE 性感JKF女郎走秀1 [2160P /MP4/768MB]
回复

使用道具 举报

1

主题

837

帖子

2533

积分

4K家园VIP

Rank: 9Rank: 9Rank: 9

积分
2533
发表于 2019-8-5 21:03:47 | 显示全部楼层
求沙发
回复 支持 反对

使用道具 举报

1

主题

449

帖子

3580

积分

4K家园VIP

Rank: 9Rank: 9Rank: 9

积分
3580
QQ
发表于 2019-8-5 21:29:02 | 显示全部楼层
下载珍藏了!!
回复 支持 反对

使用道具 举报

0

主题

694

帖子

3794

积分

中级会员

Rank: 4

积分
3794
发表于 2019-8-5 22:19:21 | 显示全部楼层
谢谢分享
回复

使用道具 举报

1

主题

1022

帖子

2908

积分

4K家园VIP

Rank: 9Rank: 9Rank: 9

积分
2908
发表于 2019-8-6 23:23:47 | 显示全部楼层
有4K版啦,下个看下
回复 支持 反对

使用道具 举报

1

主题

1023

帖子

2899

积分

注册会员

Rank: 2

积分
2899
发表于 2019-8-8 18:04:26 | 显示全部楼层
大人,此事必有蹊跷!
回复 支持 反对

使用道具 举报

56

主题

1165

帖子

3349

积分

4K家园VIP

Rank: 9Rank: 9Rank: 9

积分
3349
发表于 2019-8-8 18:42:00 来自手机 | 显示全部楼层
支持,赞一个
回复 支持 反对

使用道具 举报

0

主题

829

帖子

2501

积分

4K家园VIP

Rank: 9Rank: 9Rank: 9

积分
2501
发表于 2019-8-8 19:49:03 来自手机 | 显示全部楼层
额.....这个可以有
回复 支持 反对

使用道具 举报

0

主题

8335

帖子

9598

积分

金牌会员

Rank: 6Rank: 6

积分
9598
发表于 2019-9-29 19:13:24 | 显示全部楼层
楼主,大恩不言谢了!4K家园是最棒的!
回复 支持 反对

使用道具 举报

您需要登录后才可以回帖 登录 | 立即注册

本版积分规则

精彩图文
关闭

站长推荐上一条 /1 下一条

Archiver|手机版|TAG|Sitemap|新帖|专题|联系我们:邮箱: 4kjia.com@gmail.com   

4k家园   ©2019