[4K电影] 金发梦露[简繁中字] / Blonde (2022) 4K高清版本下载

[复制链接]

主题

帖子

0

积分

超级版主

Rank: 8Rank: 8

积分
0
 楼主| 发表于 2022-10-7 13:37:27 | 显示全部楼层 |阅读模式
本帖最后由 最爱4K哟 于 2022-10-7 21:28 编辑

QQ图片20221007211759_副本.png

◎标  题 金发梦露
◎译  名 金发女郎 / 金发美人
◎片  名 Blonde
◎年  代 2022
◎产  地 美国
◎类  别 剧情 / 传记
◎语  言 英语
◎上映日期 2022-09-08(威尼斯电影节) / 2022-09-16(美国) / 2022-09-28(美国网络)
◎IMDb评分 5.6/10 from 30387 users Updated : 2022-10-07
◎IMDb链接 https://www.imdb.com/title/tt1655389/
◎豆瓣评分 0/10 from 0 users
◎豆瓣链接 https://movie.douban.com/subject/4840389/
◎片  长 166分钟
◎导  演 安德鲁·多米尼克 Andrew Dominik
◎编  剧 安德鲁·多米尼克 Andrew Dominik / 乔伊斯·卡罗尔·欧茨 Joyce Carol Oates
◎演  员 安娜·德·阿玛斯 Ana de Armas
       艾德里安·布洛迪 Adrien Brody
       鲍比·坎纳瓦尔 Bobby Cannavale
       朱丽安妮·尼科尔森 Julianne Nicholson
       泽维尔·塞缪尔 Xavier Samuel
       埃文·威廉斯 Evan Williams
       加瑞特·迪拉胡特 Garret Dillahunt
       萨拉·帕克斯顿 Sara Paxton
       斯科特·麦克纳里 Scoot McNairy
       托比·哈斯 Toby Huss
       瑞贝卡·薇索基 Rebecca Wisocky
       露西·德维托 Lucy DeVito
       凯瑟琳·丹特 Catherine Dent
       斯宾塞·加雷特 Spencer Garrett
       丹·巴特勒 Dan Butler
       海雷·韦伯 Haley Webb
       埃登·里格尔 Eden Riegel
       耐德·巴拉米 Ned Bellamy
       泰格·伦岩 Tygh Runyan
       卡斯珀·菲利普森 Caspar Phillipson
       大卫·沃肖夫斯基 David Warshofsky
       科琳·福伊 Colleen Foy
       拉维尔·伊斯亚诺夫 Ravil Isyanov
       克里斯·莱蒙 Chris Lemmon
       泰姆·温特斯 Time Winters
       桑尼·瓦利森蒂 Sonny Valicenti
       朱迪·凯恩 Judy Kain
       蒂姆伦森 Tim Ransom
       萨尔·兰迪 Sal Landi
       莉莉·费舍尔 Lily Fisher
       史蒂夫·班诺斯 Steve Bannos
       罗伯·奈格尔 Rob Nagle
       迈克尔·马西尼 Michael Masini
       Ethan Cohn Ethan Cohn
       埃姆利·贝赫什蒂 Emil Beheshti
       米娅·麦戈文·扎伊尼 Mia McGovern Zaini
       埃里克·马特尼 Eric Matheny
       斯科特·希斯洛普 Scott Hislop
       安德鲁·塔切尔 Andrew Thacher
       瑞安·文森特 Ryan Vincent
       多米尼克·李德 Dominic Leeder
       Lidia Sabljic Lidia Sabljic
       布莱恩·科诺瓦尔 Brian Konowal
       塔特姆·尚客 Tatum Shank
       Marshall Watson Marshall Watson
       特蕾莎·雷扎迪 Tereza Rizzardi
       琳达·迈克尔斯 Linda Michaels
       亚历山德罗·佩德拉齐 Alessandro Pedrazzi
       亚历山大·卡内拉科斯 Alexander Kanellakos
       布拉德·皮特 Brad Pitt
       蔡斯·欧文 Chayse Irvin
       詹妮弗·约翰逊 Jennifer Johnson

◎简  介


  《金发梦露》改编自乔伊思·卡罗尔·奥特兹的畅销小说,大胆地再现了好莱坞最不朽的偶像之一玛丽莲·梦露的生活。从她作为诺玛·简的动荡童年,到她的明星地位和爱情纠葛,《金发梦露》模糊了事实和虚构的界限,探索了她的公众自我和私人自我之间日益扩大的割裂。该片由安德鲁·多米尼克担任编剧和导演,由安娜·德·阿玛斯领衔主演,其他演员阵容包括鲍比·坎纳瓦尔、艾德里安·布洛迪、朱丽安妮·尼科尔森、泽维尔·塞缪尔和埃文·威廉斯。

Video
ID : 1
Format : HEVC
Format/Info : High Efficiency Video Coding
Format profile : Main 10@L5.1@High
Codec ID : V_MPEGH/ISO/HEVC
Duration : 2 h 47 min
Bit rate : 22.3 Mb/s
Width : 3 840 pixels
Height : 2 160 pixels
Display aspect ratio : 16:9
Frame rate mode : Constant
Frame rate : 24.000 FPS
Color space : YUV
Chroma subsampling : 4:2:0
Bit depth : 10 bits
Bits/(Pixel*Frame) : 0.112
Stream size : 26.1 GiB (97%)
Writing library : x265 3.5+37+12-4e46995bc:[Windows][MSVC 1931][64 bit] 10bit
Encoding settings : cpuid=1111039 / frame-threads=4 / numa-pools=16 / wpp / no-pmode / no-pme / no-psnr / no-ssim / log-level=2 / input-csp=1 / input-res=3840x2160 / interlace=0 / total-frames=241155 / level-idc=51 / high-tier=1 / uhd-bd=0 / ref=5 / no-allow-non-conformance / repeat-headers / annexb / aud / no-eob / no-eos / hrd / info / hash=0 / no-temporal-layers / open-gop / min-keyint=23 / keyint=250 / gop-lookahead=0 / bframes=8 / b-adapt=2 / b-pyramid / bframe-bias=0 / rc-lookahead=40 / lookahead-slices=0 / scenecut=40 / no-hist-scenecut / radl=0 / no-splice / no-intra-refresh / ctu=64 / min-cu-size=8 / no-rect / no-amp / max-tu-size=32 / tu-inter-depth=4 / tu-intra-depth=4 / limit-tu=4 / rdoq-level=2 / dynamic-rd=0.00 / no-ssim-rd / signhide / no-tskip / nr-intra=0 / nr-inter=0 / no-constrained-intra / strong-intra-smoothing / max-merge=4 / limit-refs=0 / no-limit-modes / me=3 / subme=4 / merange=48 / temporal-mvp / no-frame-dup / no-hme / weightp / weightb / no-analyze-src-pics / deblock=-3:-3 / no-sao / no-sao-non-deblock / rd=6 / selective-sao=0 / no-early-skip / rskip / no-fast-intra / no-tskip-fast / no-cu-lossless / b-intra / no-splitrd-skip / rdpenalty=0 / psy-rd=2.00 / psy-rdoq=1.00 / no-rd-refine / no-lossless / cbqpoffs=0 / crqpoffs=0 / rc=crf / crf=22.5 / qcomp=0.60 / qpstep=4 / stats-write=0 / stats-read=0 / vbv-maxrate=160000 / vbv-bufsize=160000 / vbv-init=0.9 / min-vbv-fullness=50.0 / max-vbv-fullness=80.0 / crf-max=0.0 / crf-min=0.0 / ipratio=1.30 / pbratio=1.20 / aq-mode=3 / aq-strength=1.00 / aq-bias-strength=1.00 / no-cutree / zone-count=0 / no-strict-cbr / qg-size=32 / no-rc-grain / qpmax=69 / qpmin=0 / no-const-vbv / sar=0 / overscan=0 / videoformat=5 / range=0 / colorprim=1 / transfer=1 / colormatrix=1 / chromaloc=0 / display-window=0 / cll=0,0 / min-luma=0 / max-luma=1023 / log2-max-poc-lsb=8 / vui-timing-info / vui-hrd-info / slices=1 / no-opt-qp-pps / no-opt-ref-list-length-pps / no-multi-pass-opt-rps / scenecut-bias=0.05 / hist-threshold=0.03 / no-opt-cu-delta-qp / no-aq-motion / no-hdr10 / no-hdr10-opt / no-dhdr10-opt / no-idr-recovery-sei / analysis-reuse-level=0 / analysis-save-reuse-level=0 / analysis-load-reuse-level=0 / scale-factor=0 / refine-intra=0 / refine-inter=0 / refine-mv=1 / refine-ctu-distortion=0 / no-limit-sao / ctu-info=0 / no-lowpass-dct / refine-analysis-type=0 / copy-pic=1 / max-ausize-factor=1.0 / no-dynamic-refine / no-single-sei / no-hevc-aq / no-svt / no-field / qp-adaptation-range=1.00 / scenecut-aware-qp=0conformance-window-offsets / right=0 / bottom=0 / decoder-max-rate=0 / no-vbv-live-multi-pass
Default : Yes
Forced : No
Color range : Limited
Color primaries : BT.709
Transfer characteristics : BT.709
Matrix coefficients : BT.709

Audio
ID : 2
Format : E-AC-3 JOC
Format/Info : Enhanced AC-3 with Joint Object Coding
Commercial name : Dolby Digital Plus with Dolby Atmos
Codec ID : A_EAC3
Duration : 2 h 47 min
Bit rate mode : Constant
Bit rate : 768 kb/s
Channel(s) : 6 channels
Channel layout : L R C LFE Ls Rs
Sampling rate : 48.0 kHz
Frame rate : 31.250 FPS (1536 SPF)
Compression mode : Lossy
Stream size : 920 MiB (3%)
Language : English
Service kind : Complete Main
Default : Yes
Forced : No
Complexity index : 16
Number of dynamic objects : 15
Bed channel count : 1 channel
Bed channel configuration : LFE

Text #1
ID : 3
Format : UTF-8
Codec ID : S_TEXT/UTF8
Codec ID/Info : UTF-8 Plain Text
Duration : 2 h 35 min
Bit rate : 34 b/s
Frame rate : 0.148 FPS
Count of elements : 1381
Stream size : 39.5 KiB (0%)
Language : English
Default : Yes
Forced : No

Text #2
ID : 4
Format : UTF-8
Codec ID : S_TEXT/UTF8
Codec ID/Info : UTF-8 Plain Text
Duration : 2 h 38 min
Bit rate : 41 b/s
Frame rate : 0.178 FPS
Count of elements : 1687
Stream size : 48.4 KiB (0%)
Title : SDH
Language : English
Default : No
Forced : No

Text #3
ID : 5
Format : UTF-8
Codec ID : S_TEXT/UTF8
Codec ID/Info : UTF-8 Plain Text
Duration : 2 h 45 min
Bit rate : 58 b/s
Frame rate : 0.142 FPS
Count of elements : 1410
Stream size : 71.2 KiB (0%)
Language : Arabic
Default : No
Forced : No

Text #4
ID : 6
Format : UTF-8
Codec ID : S_TEXT/UTF8
Codec ID/Info : UTF-8 Plain Text
Duration : 2 h 45 min
Bit rate : 28 b/s
Frame rate : 0.136 FPS
Count of elements : 1354
Stream size : 34.6 KiB (0%)
Language : Czech
Default : No
Forced : No

Text #5
ID : 7
Format : UTF-8
Codec ID : S_TEXT/UTF8
Codec ID/Info : UTF-8 Plain Text
Duration : 2 h 45 min
Bit rate : 30 b/s
Frame rate : 0.133 FPS
Count of elements : 1325
Stream size : 37.2 KiB (0%)
Language : Danish
Default : No
Forced : No

Text #6
ID : 8
Format : UTF-8
Codec ID : S_TEXT/UTF8
Codec ID/Info : UTF-8 Plain Text
Duration : 2 h 45 min
Bit rate : 30 b/s
Frame rate : 0.131 FPS
Count of elements : 1301
Stream size : 36.5 KiB (0%)
Language : German
Default : No
Forced : No

Text #7
ID : 9
Format : UTF-8
Codec ID : S_TEXT/UTF8
Codec ID/Info : UTF-8 Plain Text
Duration : 2 h 45 min
Bit rate : 53 b/s
Frame rate : 0.138 FPS
Count of elements : 1368
Stream size : 64.6 KiB (0%)
Language : Greek
Default : No
Forced : No

Text #8
ID : 10
Format : UTF-8
Codec ID : S_TEXT/UTF8
Codec ID/Info : UTF-8 Plain Text
Duration : 2 h 38 min
Bit rate : 40 b/s
Frame rate : 0.189 FPS
Count of elements : 1791
Stream size : 46.5 KiB (0%)
Title : SDH
Language : Spanish
Default : No
Forced : No

Text #9
ID : 11
Format : UTF-8
Codec ID : S_TEXT/UTF8
Codec ID/Info : UTF-8 Plain Text
Duration : 2 h 35 min
Bit rate : 33 b/s
Frame rate : 0.161 FPS
Count of elements : 1506
Stream size : 38.8 KiB (0%)
Language : Spanish
Default : No
Forced : No

Text #10
ID : 12
Format : UTF-8
Codec ID : S_TEXT/UTF8
Codec ID/Info : UTF-8 Plain Text
Duration : 2 h 45 min
Bit rate : 29 b/s
Frame rate : 0.132 FPS
Count of elements : 1309
Stream size : 35.7 KiB (0%)
Language : Finnish
Default : No
Forced : No

Text #11
ID : 13
Format : UTF-8
Codec ID : S_TEXT/UTF8
Codec ID/Info : UTF-8 Plain Text
Duration : 2 h 45 min
Bit rate : 32 b/s
Frame rate : 0.135 FPS
Count of elements : 1342
Stream size : 39.8 KiB (0%)
Language : fil
Default : No
Forced : No

Text #12
ID : 14
Format : UTF-8
Codec ID : S_TEXT/UTF8
Codec ID/Info : UTF-8 Plain Text
Duration : 2 h 45 min
Bit rate : 28 b/s
Frame rate : 0.133 FPS
Count of elements : 1320
Stream size : 34.6 KiB (0%)
Language : French
Default : No
Forced : No

Text #13
ID : 15
Format : UTF-8
Codec ID : S_TEXT/UTF8
Codec ID/Info : UTF-8 Plain Text
Duration : 2 h 45 min
Bit rate : 50 b/s
Frame rate : 0.137 FPS
Count of elements : 1364
Stream size : 61.7 KiB (0%)
Language : Hebrew
Default : No
Forced : No

Text #14
ID : 16
Format : UTF-8
Codec ID : S_TEXT/UTF8
Codec ID/Info : UTF-8 Plain Text
Duration : 2 h 45 min
Bit rate : 27 b/s
Frame rate : 0.137 FPS
Count of elements : 1357
Stream size : 33.7 KiB (0%)
Language : Croatian
Default : No
Forced : No

Text #15
ID : 17
Format : UTF-8
Codec ID : S_TEXT/UTF8
Codec ID/Info : UTF-8 Plain Text
Duration : 2 h 45 min
Bit rate : 31 b/s
Frame rate : 0.135 FPS
Count of elements : 1342
Stream size : 38.0 KiB (0%)
Language : Hungarian
Default : No
Forced : No

Text #16
ID : 18
Format : UTF-8
Codec ID : S_TEXT/UTF8
Codec ID/Info : UTF-8 Plain Text
Duration : 2 h 45 min
Bit rate : 30 b/s
Frame rate : 0.137 FPS
Count of elements : 1357
Stream size : 37.2 KiB (0%)
Language : Indonesian
Default : No
Forced : No

Text #17
ID : 19
Format : UTF-8
Codec ID : S_TEXT/UTF8
Codec ID/Info : UTF-8 Plain Text
Duration : 2 h 45 min
Bit rate : 29 b/s
Frame rate : 0.132 FPS
Count of elements : 1307
Stream size : 35.6 KiB (0%)
Language : Italian
Default : No
Forced : No

Text #18
ID : 20
Format : UTF-8
Codec ID : S_TEXT/UTF8
Codec ID/Info : UTF-8 Plain Text
Duration : 2 h 45 min
Bit rate : 33 b/s
Frame rate : 0.130 FPS
Count of elements : 1292
Stream size : 40.9 KiB (0%)
Language : Japanese
Default : No
Forced : No

Text #19
ID : 21
Format : UTF-8
Codec ID : S_TEXT/UTF8
Codec ID/Info : UTF-8 Plain Text
Duration : 2 h 45 min
Bit rate : 37 b/s
Frame rate : 0.138 FPS
Count of elements : 1368
Stream size : 46.0 KiB (0%)
Language : Korean
Default : No
Forced : No

Text #20
ID : 22
Format : UTF-8
Codec ID : S_TEXT/UTF8
Codec ID/Info : UTF-8 Plain Text
Duration : 2 h 45 min
Bit rate : 29 b/s
Frame rate : 0.137 FPS
Count of elements : 1358
Stream size : 36.0 KiB (0%)
Language : Malay
Default : No
Forced : No

Text #21
ID : 23
Format : UTF-8
Codec ID : S_TEXT/UTF8
Codec ID/Info : UTF-8 Plain Text
Duration : 2 h 45 min
Bit rate : 28 b/s
Frame rate : 0.135 FPS
Count of elements : 1336
Stream size : 34.5 KiB (0%)
Language : Norwegian Bokmal
Default : No
Forced : No

Text #22
ID : 24
Format : UTF-8
Codec ID : S_TEXT/UTF8
Codec ID/Info : UTF-8 Plain Text
Duration : 2 h 45 min
Bit rate : 29 b/s
Frame rate : 0.129 FPS
Count of elements : 1285
Stream size : 35.7 KiB (0%)
Language : Dutch
Default : No
Forced : No

Text #23
ID : 25
Format : UTF-8
Codec ID : S_TEXT/UTF8
Codec ID/Info : UTF-8 Plain Text
Duration : 2 h 45 min
Bit rate : 28 b/s
Frame rate : 0.128 FPS
Count of elements : 1271
Stream size : 34.2 KiB (0%)
Language : Polish
Default : No
Forced : No

Text #24
ID : 26
Format : UTF-8
Codec ID : S_TEXT/UTF8
Codec ID/Info : UTF-8 Plain Text
Duration : 2 h 45 min
Bit rate : 30 b/s
Frame rate : 0.136 FPS
Count of elements : 1348
Stream size : 37.1 KiB (0%)
Language : Portuguese
Default : No
Forced : No

Text #25
ID : 27
Format : UTF-8
Codec ID : S_TEXT/UTF8
Codec ID/Info : UTF-8 Plain Text
Duration : 2 h 45 min
Bit rate : 31 b/s
Frame rate : 0.140 FPS
Count of elements : 1393
Stream size : 37.6 KiB (0%)
Title : Brazilian
Language : Portuguese
Default : No
Forced : No

Text #26
ID : 28
Format : UTF-8
Codec ID : S_TEXT/UTF8
Codec ID/Info : UTF-8 Plain Text
Duration : 2 h 45 min
Bit rate : 35 b/s
Frame rate : 0.137 FPS
Count of elements : 1356
Stream size : 42.6 KiB (0%)
Language : Romanian
Default : No
Forced : No

Text #27
ID : 29
Format : UTF-8
Codec ID : S_TEXT/UTF8
Codec ID/Info : UTF-8 Plain Text
Duration : 2 h 45 min
Bit rate : 51 b/s
Frame rate : 0.143 FPS
Count of elements : 1422
Stream size : 62.4 KiB (0%)
Language : Russian
Default : No
Forced : No

Text #28
ID : 30
Format : UTF-8
Codec ID : S_TEXT/UTF8
Codec ID/Info : UTF-8 Plain Text
Duration : 2 h 45 min
Bit rate : 29 b/s
Frame rate : 0.132 FPS
Count of elements : 1308
Stream size : 36.1 KiB (0%)
Language : Swedish
Default : No
Forced : No

Text #29
ID : 31
Format : UTF-8
Codec ID : S_TEXT/UTF8
Codec ID/Info : UTF-8 Plain Text
Duration : 2 h 45 min
Bit rate : 80 b/s
Frame rate : 0.138 FPS
Count of elements : 1365
Stream size : 97.2 KiB (0%)
Language : Thai
Default : No
Forced : No

Text #30
ID : 32
Format : UTF-8
Codec ID : S_TEXT/UTF8
Codec ID/Info : UTF-8 Plain Text
Duration : 2 h 45 min
Bit rate : 31 b/s
Frame rate : 0.136 FPS
Count of elements : 1351
Stream size : 38.3 KiB (0%)
Language : Turkish
Default : No
Forced : No

Text #31
ID : 33
Format : UTF-8
Codec ID : S_TEXT/UTF8
Codec ID/Info : UTF-8 Plain Text
Duration : 2 h 45 min
Bit rate : 48 b/s
Frame rate : 0.137 FPS
Count of elements : 1360
Stream size : 58.3 KiB (0%)
Language : Ukrainian
Default : No
Forced : No

Text #32
ID : 34
Format : UTF-8
Codec ID : S_TEXT/UTF8
Codec ID/Info : UTF-8 Plain Text
Duration : 2 h 45 min
Bit rate : 44 b/s
Frame rate : 0.138 FPS
Count of elements : 1367
Stream size : 53.6 KiB (0%)
Language : Vietnamese
Default : No
Forced : No

Text #33
ID : 35
Format : UTF-8
Codec ID : S_TEXT/UTF8
Codec ID/Info : UTF-8 Plain Text
Duration : 2 h 45 min
Bit rate : 33 b/s
Frame rate : 0.138 FPS
Count of elements : 1368
Stream size : 41.1 KiB (0%)
Title : 中文简体
Language : Chinese
Default : No
Forced : No

Text #34
ID : 36
Format : UTF-8
Codec ID : S_TEXT/UTF8
Codec ID/Info : UTF-8 Plain Text
Duration : 2 h 45 min
Bit rate : 32 b/s
Frame rate : 0.142 FPS
Count of elements : 1413
Stream size : 39.7 KiB (0%)
Title : 中文繁体
Language : Chinese
Default : No
Forced : No

为了更好体验下载、推荐使用qBittorrent、uTorrent、BitComet等下载软件,有条件的推荐115或会员下载软件!

下载地址:


游客,如果您要查看本帖隐藏内容请回复






上一篇:怪物高中/Monster High: The Movie (2022) 4K高清版本下载
下一篇:小鸟凯瑟琳[简繁中字]/Catherine Called Birdy(2022)4K高清版本下载
回复

使用道具 举报

55

主题

1644

帖子

4748

积分

4K家园VIP

Rank: 9Rank: 9Rank: 9

积分
4748
发表于 2022-10-7 13:37:31 | 显示全部楼层
回复 支持 反对

使用道具 举报

主题

帖子

0

积分

4K家园VIP

Rank: 9Rank: 9Rank: 9

积分
0
发表于 2022-10-7 15:54:53 | 显示全部楼层
太好啦&萬分感謝版主的無私發佈分享%
回复 支持 反对

使用道具 举报

主题

帖子

6

积分

新手上路

Rank: 1

积分
6
发表于 2022-10-10 10:58:57 | 显示全部楼层
找了很久 都没资源
感谢辛苦上传
回复 支持 反对

使用道具 举报

47

主题

1561

帖子

4525

积分

4K家园VIP

Rank: 9Rank: 9Rank: 9

积分
4525
发表于 2022-10-12 02:30:58 | 显示全部楼层
看帖要回,回帖才健康,在踩踩,楼主辛苦了!
回复 支持 反对

使用道具 举报

主题

帖子

233

积分

新手上路

Rank: 1

积分
233
发表于 2022-10-12 22:50:56 | 显示全部楼层
DDDDDDDDDDDDDDDDDDDDDD
回复 支持 反对

使用道具 举报

主题

帖子

73

积分

新手上路

Rank: 1

积分
73
发表于 2022-10-13 12:25:50 | 显示全部楼层
看下梦露的人生
回复 支持 反对

使用道具 举报

46

主题

1524

帖子

4408

积分

4K家园VIP

Rank: 9Rank: 9Rank: 9

积分
4408
发表于 2022-10-15 09:12:16 | 显示全部楼层
very good
回复 支持 反对

使用道具 举报

47

主题

1547

帖子

4459

积分

4K家园VIP

Rank: 9Rank: 9Rank: 9

积分
4459
发表于 2022-10-21 16:14:45 | 显示全部楼层
纯粹路过,没任何兴趣,仅仅是看在老用户份上回复一下
回复 支持 反对

使用道具 举报

主题

帖子

22

积分

新手上路

Rank: 1

积分
22
发表于 2022-10-25 22:00:10 | 显示全部楼层
at : UTF-8
Codec ID : S_TEXT/UTF8
Codec ID/Info : UTF-8 Plain Text
Duration : 2 h 45 min
Bit rate : 32 b/s
Frame rate : 0.142 FPS
Count of elements : 1413
Stream size : 39.7 KiB (0%)
Title : 中文繁体
回复 支持 反对

使用道具 举报

您需要登录后才可以回帖 登录 | 立即注册

本版积分规则

精彩图文
Archiver|手机版|TAG|Sitemap|新帖|专题|联系我们:邮箱: 4kjia.com@gmail.com   

4k家园   ©2019