[4K电影] 爱人 / Significant Other (2022) 4K高清版本下载

[复制链接]

主题

帖子

0

积分

超级版主

Rank: 8Rank: 8

积分
0
 楼主| 发表于 2022-10-7 14:34:46 | 显示全部楼层 |阅读模式
本帖最后由 最爱4K哟 于 2022-10-7 21:24 编辑

QQ图片20221007211808_副本.png

◎标  题 爱人
◎译  名 另一半
◎片  名 Significant Other
◎年  代 2022
◎产  地 美国
◎类  别 剧情 / 科幻 / 惊悚
◎语  言 英语
◎上映日期 2022-10-07(美国网络)
◎IMDb链接 https://www.imdb.com/title/tt15353964/
◎豆瓣链接 https://movie.douban.com/subject/35879129/
◎导  演 丹·伯克 Dan Berk / 罗伯特·奥尔森 Robert Olsen
◎编  剧 丹·伯克 Dan Berk / 罗伯特·奥尔森 Robert Olsen
◎演  员 麦卡·梦露 Maika Monroe
       杰克·莱西 Jake Lacy


◎简  介


  《另一半》讲述了一对年轻夫妇(麦卡·梦露和杰克·莱西)的故事,他们在太平洋西北部进行了一次远程背包旅行,但当他们意识到自己可能并不孤单时,事情就发生了黑暗的转折。

Video
ID : 1
Format : HEVC
Format/Info : High Efficiency Video Coding
Format profile : Main 10@L5@Main
HDR format : Dolby Vision, Version 1.0, dvhe.05.06, BL+RPU
Codec ID : V_MPEGH/ISO/HEVC
Duration : 1 h 24 min
Bit rate : 13.3 Mb/s
Width : 3 840 pixels
Height : 2 160 pixels
Display aspect ratio : 16:9
Frame rate mode : Constant
Frame rate : 23.976 (24000/1001) FPS
Color space : YUV
Chroma subsampling : 4:2:0 (Type 0)
Bit depth : 10 bits
Bits/(Pixel*Frame) : 0.067
Stream size : 7.82 GiB (93%)
Default : Yes
Forced : No
Color range : Full

Audio
ID : 2
Format : E-AC-3 JOC
Format/Info : Enhanced AC-3 with Joint Object Coding
Commercial name : Dolby Digital Plus with Dolby Atmos
Codec ID : A_EAC3
Duration : 1 h 24 min
Bit rate mode : Constant
Bit rate : 768 kb/s
Channel(s) : 6 channels
Channel layout : L R C LFE Ls Rs
Sampling rate : 48.0 kHz
Frame rate : 31.250 FPS (1536 SPF)
Compression mode : Lossy
Stream size : 462 MiB (5%)
Language : English
Service kind : Complete Main
Default : Yes
Forced : No
Complexity index : 16
Number of dynamic objects : 15
Bed channel count : 1 channel
Bed channel configuration : LFE

Text
ID : 3
Format : UTF-8
Codec ID : S_TEXT/UTF8
Codec ID/Info : UTF-8 Plain Text
Title : English [SDH]
Language : English
Default : No
Forced : No

为了更好体验下载、推荐使用qBittorrent、uTorrent、BitComet等下载软件,有条件的推荐115或会员下载软件!

下载地址:


游客,如果您要查看本帖隐藏内容请回复

游客,如果您要查看本帖隐藏内容请回复

游客,如果您要查看本帖隐藏内容请回复

游客,如果您要查看本帖隐藏内容请回复






上一篇:小鸟凯瑟琳[简繁中字]/Catherine Called Birdy(2022)4K高清版本下载
下一篇:阴宅不留人 / The Visitor (2022) 4K高清版本下载
回复

使用道具 举报

1

主题

1365

帖子

4119

积分

4K家园VIP

Rank: 9Rank: 9Rank: 9

积分
4119
发表于 2022-10-7 14:34:50 来自手机 | 显示全部楼层
有4K版卡,下个看下
回复 支持 反对

使用道具 举报

主题

帖子

0

积分

4K家园VIP

Rank: 9Rank: 9Rank: 9

积分
0
发表于 2022-10-7 15:56:55 | 显示全部楼层
太好啦&萬分感謝版主的無私發佈分享%
回复 支持 反对

使用道具 举报

主题

帖子

0

积分

新手上路

Rank: 1

积分
0
发表于 2022-10-8 04:48:36 | 显示全部楼层
支持一下楼主
回复 支持 反对

使用道具 举报

主题

帖子

6

积分

新手上路

Rank: 1

积分
6
发表于 2022-10-9 18:04:53 | 显示全部楼层
thx for u sharing
回复 支持 反对

使用道具 举报

0

主题

1206

帖子

3632

积分

4K家园VIP

Rank: 9Rank: 9Rank: 9

积分
3632
发表于 2022-10-14 02:29:12 | 显示全部楼层
顶起出售广告位
回复 支持 反对

使用道具 举报

1

主题

1472

帖子

4272

积分

4K家园VIP

Rank: 9Rank: 9Rank: 9

积分
4272
发表于 2022-10-14 21:14:15 | 显示全部楼层
为了三千积分!
回复 支持 反对

使用道具 举报

0

主题

1770

帖子

4914

积分

4K家园VIP

Rank: 9Rank: 9Rank: 9

积分
4914
发表于 2022-10-28 04:56:30 | 显示全部楼层
支持你哈...................................
回复 支持 反对

使用道具 举报

主题

帖子

9

积分

新手上路

Rank: 1

积分
9
发表于 2022-10-28 07:21:25 来自手机 | 显示全部楼层
谢谢分享
回复

使用道具 举报

2

主题

1371

帖子

4131

积分

4K家园VIP

Rank: 9Rank: 9Rank: 9

积分
4131
发表于 2022-10-31 04:35:21 来自手机 | 显示全部楼层
哈哈,我只看看不说话
回复 支持 反对

使用道具 举报

您需要登录后才可以回帖 登录 | 立即注册

本版积分规则

精彩图文
Archiver|手机版|TAG|Sitemap|新帖|专题|联系我们:邮箱: 4kjia.com@gmail.com   

4k家园   ©2019