[4K电影] 阴宅不留人 / The Visitor (2022) 4K高清版本下载

[复制链接]

主题

帖子

0

积分

超级版主

Rank: 8Rank: 8

积分
0
 楼主| 发表于 2022-10-7 20:31:44 | 显示全部楼层 |阅读模式

QQ图片20221007203020_副本.png

◎标  题 阴宅不留人
◎译  名 不速之客
◎片  名 The Visitor
◎年  代 2022
◎产  地 美国
◎类  别 惊悚 / 恐怖
◎语  言 英语
◎上映日期 2022-10-07(美国)
◎IMDb评分 0/10 from  0 from users
◎IMDb链接 https://www.imdb.com/title/tt15558152/
◎豆瓣评分 0/10 from  0 from users
◎豆瓣链接 https://movie.douban.com/subject/35729439/
◎导  演 贾斯汀·P·兰格 Justin P. Lange
◎编  剧 西蒙·博伊斯 Simon Boyes / 亚当·梅森 Adam Mason
◎演  员 菲恩·琼斯 Finn Jones
                   杰西卡·麦克娜美 Jessica McNamee
                   维多利亚·哈里斯 Victoria Harris
                   唐娜·比斯科 Donna Biscoe
                   托马斯·弗朗西斯·墨菲 Thomas Francis Murphy
                   Shanna Forrestall Shanna Forrestall
                   维多利亚·佩吉·沃特金斯 Victoria Paige Watkins
                   丹麦·罗兹 Dane Rhodes
                   苏珊·麦克菲尔 Susan McPhail
                   苏·洛克 Sue Rock
                   伊丽莎白·纽科姆 Elizabeth Newcomer


◎简  介


  在经历了一些悲剧之后,一对夫妇搬回了她童年的家。罗伯特发现了一幅长得很像他的男人的旧肖像,他从一个兔子洞里钻出来,想找出这个神秘的混血儿的身份。

Video
ID : 1
Format : HEVC
Format/Info : High Efficiency Video Coding
Format profile : Main 10@L5@High
Codec ID : V_MPEGH/ISO/HEVC
Duration : 1 h 28 min
Bit rate : 12.0 Mb/s
Width : 3 840 pixels
Height : 2 160 pixels
Display aspect ratio : 16:9
Frame rate mode : Constant
Frame rate : 23.976 FPS
Color space : YUV
Chroma subsampling : 4:2:0
Bit depth : 10 bits
Bits/(Pixel*Frame) : 0.060
Stream size : 7.42 GiB (97%)
Language : English
Default : Yes
Forced : No
Color range : Limited
Color primaries : BT.709
Transfer characteristics : BT.709
Matrix coefficients : BT.709

Audio
ID : 2
Format : AC-3
Format/Info : Audio Coding 3
Commercial name : Dolby Digital
Codec ID : A_AC3
Duration : 1 h 28 min
Bit rate mode : Constant
Bit rate : 384 kb/s
Channel(s) : 6 channels
Channel layout : L R C LFE Ls Rs
Sampling rate : 48.0 kHz
Frame rate : 31.250 FPS (1536 SPF)
Compression mode : Lossy
Stream size : 244 MiB (3%)
Language : English
Service kind : Complete Main
Default : Yes
Forced : No

Text #1
ID : 3
Format : UTF-8
Codec ID : S_TEXT/UTF8
Codec ID/Info : UTF-8 Plain Text
Duration : 1 h 27 min
Bit rate : 45 b/s
Frame rate : 0.198 FPS
Count of elements : 1041
Stream size : 29.5 KiB (0%)
Title : SDH
Language : English
Default : No
Forced : No

Text #2
ID : 4
Format : UTF-8
Codec ID : S_TEXT/UTF8
Codec ID/Info : UTF-8 Plain Text
Duration : 1 h 27 min
Bit rate : 40 b/s
Frame rate : 0.163 FPS
Count of elements : 855
Stream size : 25.6 KiB (0%)
Language : English
Default : No
Forced : No

Menu
00:00:00.000 : en:Chapter 01
00:10:01.726 : en:Chapter 02
00:20:25.183 : en:Chapter 03
00:31:58.209 : en:Chapter 04
00:40:31.931 : en:Chapter 05
00:50:04.963 : en:Chapter 06
01:00:17.200 : en:Chapter 07
01:09:18.783 : en:Chapter 08
01:21:28.013 : en:Chapter 09
01:26:11.254 : en:Chapter 10


为了更好体验下载、推荐使用qBittorrent、uTorrent、BitComet等下载软件,有条件的推荐115或会员下载软件!

下载地址:


游客,如果您要查看本帖隐藏内容请回复







上一篇:爱人 / Significant Other (2022) 4K高清版本下载
下一篇:暗夜狼人简繁粤中字] / Werewolf By Night (2022) 4K高清版本下载
回复

使用道具 举报

1

主题

1435

帖子

4111

积分

4K家园VIP

Rank: 9Rank: 9Rank: 9

积分
4111
发表于 2022-10-7 20:31:48 来自手机 | 显示全部楼层
出4K版啦,下个看看
回复 支持 反对

使用道具 举报

0

主题

323

帖子

1920

积分

4K家园VIP

Rank: 9Rank: 9Rank: 9

积分
1920
QQ
发表于 2022-10-7 22:03:24 | 显示全部楼层
楼主辛苦了,谢谢楼主,感谢楼主分享,楼主好人一生平安!!!
回复 支持 反对

使用道具 举报

4

主题

1419

帖子

4268

积分

4K家园VIP

Rank: 9Rank: 9Rank: 9

积分
4268
发表于 2022-10-8 02:24:33 来自手机 | 显示全部楼层
站位支持
回复 支持 反对

使用道具 举报

33

主题

1285

帖子

3864

积分

4K家园VIP

Rank: 9Rank: 9Rank: 9

积分
3864
发表于 2022-10-8 08:03:31 | 显示全部楼层
楼猪V5啊
回复 支持 反对

使用道具 举报

195

主题

1641

帖子

4525

积分

4K家园VIP

Rank: 9Rank: 9Rank: 9

积分
4525
发表于 2022-10-9 14:24:04 | 显示全部楼层
哈哈,我只看看不说话
回复 支持 反对

使用道具 举报

2

主题

1668

帖子

4598

积分

4K家园VIP

Rank: 9Rank: 9Rank: 9

积分
4598
发表于 2022-10-10 04:56:13 | 显示全部楼层
支持,楼下的跟上哈~
回复 支持 反对

使用道具 举报

您需要登录后才可以回帖 登录 | 立即注册

本版积分规则

精彩图文
Archiver|手机版|TAG|Sitemap|新帖|专题|联系我们:邮箱: 4kjia.com@gmail.com   

4k家园   ©2019