[4K电影] 天堂公路 / Paradise Highway (2022) 4K高清版本下载

[复制链接]

主题

帖子

0

积分

超级版主

Rank: 8Rank: 8

积分
0
 楼主| 发表于 2022-10-7 21:05:24 | 显示全部楼层 |阅读模式

QQ图片20221007210226_副本.png

◎译  名 天堂公路/天堂高速公路/Leila M.
◎片  名 Paradise Highway
◎年  代 2022
◎产  地 德国/美国
◎类  别 惊悚
◎语  言 英语
◎上映日期 2022-07-29(美国)
◎IMDb评分  5.4/10 from 2247 users 更新 : 2022-10-07
◎IMDb链接  https://www.imdb.com/title/tt7469828/
◎豆瓣评分 6.3/10 from 905 users 更新 : 2022-10-07
◎豆瓣链接 https://movie.douban.com/subject/35511246/
◎导  演 Anna Gutto Anna Gutto
◎编  剧 Anna Gutto Anna Gutto
◎主  演 摩根·弗里曼 Morgan Freeman
      朱丽叶·比诺什 Juliette Binoche
      弗兰克·格里罗 Frank Grillo
      卡梅隆·莫纳汉 Cameron Monaghan
      克里丝蒂安·赛德尔 Christiane Seidel
      维罗尼卡·费瑞尔 Veronica Ferres
      杰基·达拉斯 Jackie Dallas
      哈拉·芬利 Hala Finley
      托米·厄尔·詹金斯 Tommie Earl Jenkins
      朱万达斯·坎迪斯 Jwaundace Candece
      贾登·汉密尔顿 Jayden Hamilton
      迪瓦·泰勒 Diva Tyler
      特蕾茜普弗 Tracy Pfau
      吉姆·多尔蒂 Jim Dougherty
      雷蒙德·麦卡纳利 Raymond McAnally
      朱迪·迪克森 Judy Dickerson
      詹姆斯·维克托·布利安 James Victor Bulian
      蒂姆·坦纳 Tim Tanner

◎简  介


  安娜·古托(《摄影爱好者》《汤姆和吸血鬼》)自编自导,讲述莎莉(比诺什)是一名卡车司机,为了从一个致命的监狱团伙手中救出弟弟丹尼斯(格里罗),她被迫走私非法货物。随着FBI特工格里克(弗里曼)的追踪,莎莉的动机和良心受到了挑战,她最终发现包裹里是一名少女(芬利)。

Video
ID : 1
Format : HEVC
Format/Info : High Efficiency Video Coding
Format profile : Main 10@L5@High
Codec ID : V_MPEGH/ISO/HEVC
Duration : 1 h 54 min
Bit rate : 12.0 Mb/s
Width : 3 828 pixels
Height : 1 596 pixels
Display aspect ratio : 2.40:1
Frame rate mode : Constant
Frame rate : 23.976 FPS
Color space : YUV
Chroma subsampling : 4:2:0
Bit depth : 10 bits
Bits/(Pixel*Frame) : 0.082
Stream size : 9.65 GiB (75%)
Language : English
Default : Yes
Forced : No
Color range : Limited
Color primaries : BT.709
Transfer characteristics : BT.709
Matrix coefficients : BT.709

Audio #1
ID : 2
Format : DTS XLL
Format/Info : Digital Theater Systems
Commercial name : DTS-HD Master Audio
Codec ID : A_DTS
Duration : 1 h 54 min
Bit rate mode : Variable
Bit rate : 3 542 kb/s
Channel(s) : 6 channels
Channel layout : C L R Ls Rs LFE
Sampling rate : 48.0 kHz
Frame rate : 93.750 FPS (512 SPF)
Bit depth : 24 bits
Compression mode : Lossless
Stream size : 2.84 GiB (22%)
Title : DTS-HD MA 5.1
Language : English
Default : Yes
Forced : No

Audio #2
ID : 3
Format : AC-3
Format/Info : Audio Coding 3
Commercial name : Dolby Digital
Codec ID : A_AC3
Duration : 1 h 54 min
Bit rate mode : Constant
Bit rate : 384 kb/s
Channel(s) : 6 channels
Channel layout : L R C LFE Ls Rs
Sampling rate : 48.0 kHz
Frame rate : 31.250 FPS (1536 SPF)
Compression mode : Lossy
Stream size : 315 MiB (2%)
Title : DD 5.1
Language : English
Service kind : Complete Main
Default : No
Forced : No

Text #1
ID : 4
Format : UTF-8
Codec ID : S_TEXT/UTF8
Codec ID/Info : UTF-8 Plain Text
Duration : 1 h 48 min
Bit rate : 44 b/s
Frame rate : 0.168 FPS
Count of elements : 1088
Stream size : 35.4 KiB (0%)
Language : English
Default : Yes
Forced : No

Text #2
ID : 5
Format : UTF-8
Codec ID : S_TEXT/UTF8
Codec ID/Info : UTF-8 Plain Text
Duration : 1 h 52 min
Bit rate : 49 b/s
Frame rate : 0.190 FPS
Count of elements : 1287
Stream size : 40.9 KiB (0%)
Title : SDH
Language : English
Default : No
Forced : No

Text #3
ID : 6
Format : PGS
Muxing mode : zlib
Codec ID : S_HDMV/PGS
Codec ID/Info : Picture based subtitle format used on BDs/HD-DVDs
Duration : 1 h 52 min
Bit rate : 28.4 kb/s
Frame rate : 0.359 FPS
Count of elements : 2436
Stream size : 22.9 MiB (0%)
Title : SDH
Language : English
Default : No
Forced : No

Text #4
ID : 7
Format : PGS
Muxing mode : zlib
Codec ID : S_HDMV/PGS
Codec ID/Info : Picture based subtitle format used on BDs/HD-DVDs
Duration : 1 h 52 min
Bit rate : 22.5 kb/s
Frame rate : 0.277 FPS
Count of elements : 1868
Stream size : 18.1 MiB (0%)
Language : French
Default : No
Forced : No

Text #5
ID : 8
Format : PGS
Muxing mode : zlib
Codec ID : S_HDMV/PGS
Codec ID/Info : Picture based subtitle format used on BDs/HD-DVDs
Duration : 1 h 53 min
Bit rate : 24.0 kb/s
Frame rate : 0.294 FPS
Count of elements : 1994
Stream size : 19.4 MiB (0%)
Title : Latin American
Language : Spanish
Default : No
Forced : No

Menu
00:00:00.000 : en:Chapter 01
00:15:18.376 : en:Chapter 02
00:31:48.241 : en:Chapter 03
00:49:40.438 : en:Chapter 04
01:00:25.375 : en:Chapter 05
01:17:09.004 : en:Chapter 06
01:33:48.920 : en:Chapter 07
01:50:01.518 : en:Chapter 08


为了更好体验下载、推荐使用qBittorrent、uTorrent、BitComet等下载软件,有条件的推荐115或会员下载软件!

下载地址:


游客,如果您要查看本帖隐藏内容请回复





上一篇:暗夜狼人简繁粤中字] / Werewolf By Night (2022) 4K高清版本下载
下一篇:养鬼吃人 / Hellraiser (2022) 4K高清版本下载
回复

使用道具 举报

1

主题

1365

帖子

4119

积分

4K家园VIP

Rank: 9Rank: 9Rank: 9

积分
4119
发表于 2022-10-7 21:05:28 | 显示全部楼层
传说中的沙发???哇卡卡
回复 支持 反对

使用道具 举报

主题

帖子

0

积分

4K家园VIP

Rank: 9Rank: 9Rank: 9

积分
0
发表于 2022-10-8 07:08:28 | 显示全部楼层
太好啦&萬分感謝版主的無私發佈分享%
回复 支持 反对

使用道具 举报

主题

帖子

10

积分

新手上路

Rank: 1

积分
10
发表于 2022-10-8 08:55:33 | 显示全部楼层
感谢分享
回复

使用道具 举报

主题

帖子

51

积分

新手上路

Rank: 1

积分
51
发表于 2022-10-8 09:15:09 来自手机 | 显示全部楼层
谢谢
回复

使用道具 举报

主题

帖子

9

积分

新手上路

Rank: 1

积分
9
发表于 2022-10-8 11:30:24 | 显示全部楼层
感谢楼主分享
回复 支持 反对

使用道具 举报

主题

帖子

23

积分

新手上路

Rank: 1

积分
23
发表于 2022-10-8 21:41:06 | 显示全部楼层
非常不错的哦
回复 支持 反对

使用道具 举报

80

主题

1595

帖子

4677

积分

4K家园VIP

Rank: 9Rank: 9Rank: 9

积分
4677
发表于 2022-10-13 12:48:26 | 显示全部楼层
体验下4K版的
回复 支持 反对

使用道具 举报

头像被屏蔽

主题

帖子

1017

积分

禁止访问

积分
1017
发表于 2022-10-17 17:59:29 | 显示全部楼层
提示: 作者被禁止或删除 内容自动屏蔽
回复

使用道具 举报

54

主题

1519

帖子

4403

积分

4K家园VIP

Rank: 9Rank: 9Rank: 9

积分
4403
发表于 2022-10-18 16:47:39 | 显示全部楼层
确实不错,顶先
回复 支持 反对

使用道具 举报

您需要登录后才可以回帖 登录 | 立即注册

本版积分规则

精彩图文
Archiver|手机版|TAG|Sitemap|新帖|专题|联系我们:邮箱: 4kjia.com@gmail.com   

4k家园   ©2019