[4K电影] 养鬼吃人 / Hellraiser (2022) 4K高清版本下载

[复制链接]

主题

帖子

0

积分

超级版主

Rank: 8Rank: 8

积分
0
 楼主| 发表于 2022-10-8 21:41:20 | 显示全部楼层 |阅读模式
QQ图片20221008213846_副本.png

◎标  题 养鬼吃人
◎译  名 新养鬼吃人
◎片  名 Hellraiser
◎年  代 2022
◎产  地 美国
◎类  别 悬疑 / 惊悚 / 恐怖
◎语  言 英语
◎上映日期 2022-10-07(美国网络)
◎IMDb评分 6.4/10 from 4332 users Updated : 2022-10-08
◎IMDb链接 https://www.imdb.com/title/tt0887261/
◎豆瓣评分 0/10 from  0 from users
◎豆瓣链接 https://movie.douban.com/subject/2042941/
◎导  演 大卫·布鲁克纳 David Bruckner
◎编  剧 本·柯林斯 Ben Collins / 卢克·皮厄特罗斯基 Luke Piotrowski / 大卫·S·高耶 David S. Goyer / 克莱夫·巴克 Clive Barker / 泰迪·特南鲍姆 Teddy Tenenbaum
◎演  员 杰米·克莱顿 Jamie Clayton
       高兰·维斯耶克 Goran Visnjic
       西娅姆·阿巴斯 Hiam Abbass
       布兰登·弗林 Brandon Flynn
       德鲁·斯塔基 Drew Starkey
       敖德萨·阿德隆 Odessa Adlon
       赛琳娜·露 Selina Lo
       伊芙·海因德 Aoife Hinds
       普里德拉格·比耶拉克 Predrag Bjelac
       亚当·费森 Adam Faison
       尼古拉·肯特 Nikola Kent
       伊沃娜·库斯图迪奇 Ivona Kustudic
       凯蒂·戈伊科维奇 Katarina Gojkovic
       Miodrag Milovanov Miodrag Milovanov
       克莱夫·巴克 Clive Barker
       大卫·S·高耶 David S. Goyer
       莫米尔卡·拜洛维奇 Momirka Bailovic

◎简  介


  经典恐怖片《养鬼吃人/猛鬼追魂》将拍新版电影,近日定下导演:大卫·布鲁克纳(《黑森灵》《鬼作秀》)。
原版讲述男子Frank不慎打开了另一个次元,被著名恶鬼“针头鬼”带领的魔鬼Cenobites所杀。而多年后,Frank的哥哥Larry带着妻子Julia,搬到了他已故的妈妈的老宅中,因为一次意外,Larry的血让Frank的尸体重生,也让恶鬼降临……后成了一个系列。新版将从系列第一部开始重启,据称将在忠于原版的基础上有进化。
Spyglass媒体公司打造。Ben Collins和Luke Piotrowski编剧,大卫·S·高耶(《蝙蝠侠:黑暗骑士三部曲》《刀锋战士》)提供故事并参与制片,这个导演、编剧、制片组合也就是今年圣丹斯电影节的热门恐怖片《鬼屋》的班底。
Video
ID : 1
Format : HEVC
Format/Info : High Efficiency Video Coding
Format profile : Main 10@L5.1@Main
Codec ID : V_MPEGH/ISO/HEVC
Duration : 2 h 0 min
Bit rate : 14.6 Mb/s
Width : 3 840 pixels
Height : 2 160 pixels
Display aspect ratio : 16:9
Frame rate mode : Constant
Frame rate : 23.976 (24000/1001/189150) FPS
Color space : YUV
Chroma subsampling : 4:2:0
Bit depth : 10 bits
Bits/(Pixel*Frame) : 0.073
Stream size : 12.3 GiB (96%)
Default : Yes
Forced : No

Audio
ID : 2
Format : E-AC-3
Format/Info : Enhanced AC-3
Commercial name : Dolby Digital Plus
Codec ID : A_EAC3
Duration : 2 h 0 min
Bit rate mode : Constant
Bit rate : 256 kb/s
Channel(s) : 6 channels
Channel layout : L R C LFE Ls Rs
Sampling rate : 48.0 kHz
Frame rate : 31.250 FPS (1536 SPF)
Compression mode : Lossy
Stream size : 221 MiB (2%)
Language : English
Service kind : Complete Main
Default : Yes
Forced : No

Text #1
ID : 3
Format : UTF-8
Codec ID : S_TEXT/UTF8
Codec ID/Info : UTF-8 Plain Text
Title : English [SDH]
Language : English
Default : No
Forced : No

Text #2
ID : 4
Format : UTF-8
Codec ID : S_TEXT/UTF8
Codec ID/Info : UTF-8 Plain Text
Title : Spanish [SDH]
Language : Spanish
Default : No
Forced : No

为了更好体验下载、推荐使用qBittorrent、uTorrent、BitComet等下载软件,有条件的推荐115或会员下载软件!

下载地址:

游客,如果您要查看本帖隐藏内容请回复





QQ图片20221008213846_副本.png

上一篇:天堂公路 / Paradise Highway (2022) 4K高清版本下载
下一篇:西区故事 / West Side Story (1961) 4K高清版本下载
回复

使用道具 举报

1

主题

1389

帖子

4185

积分

4K家园VIP

Rank: 9Rank: 9Rank: 9

积分
4185
发表于 2022-10-8 21:41:25 来自手机 | 显示全部楼层
啊啊啊啊啊啊啊啊啊啊啊
回复 支持 反对

使用道具 举报

52

主题

1576

帖子

4550

积分

4K家园VIP

Rank: 9Rank: 9Rank: 9

积分
4550
发表于 2022-10-8 22:16:22 | 显示全部楼层
不错 支持一个了
回复 支持 反对

使用道具 举报

6

主题

1477

帖子

4307

积分

中级会员

Rank: 4

积分
4307
发表于 2022-10-8 23:09:02 来自手机 | 显示全部楼层
大人,此事必有蹊跷!
回复 支持 反对

使用道具 举报

5

主题

1739

帖子

4823

积分

4K家园VIP

Rank: 9Rank: 9Rank: 9

积分
4823
发表于 2022-10-8 23:30:32 来自手机 | 显示全部楼层
高手云集 果断围观
回复 支持 反对

使用道具 举报

1

主题

1211

帖子

3653

积分

4K家园VIP

Rank: 9Rank: 9Rank: 9

积分
3653
发表于 2022-10-9 00:02:37 来自手机 | 显示全部楼层
垃圾
回复 支持 反对

使用道具 举报

主题

帖子

73

积分

新手上路

Rank: 1

积分
73
发表于 2022-10-9 14:54:14 | 显示全部楼层
期待这部很久了 希望不会让人失望
回复 支持 反对

使用道具 举报

主题

帖子

13

积分

新手上路

Rank: 1

积分
13
发表于 2022-10-9 17:57:29 | 显示全部楼层
怎么下载啊
回复 支持 反对

使用道具 举报

主题

帖子

12

积分

新手上路

Rank: 1

积分
12
发表于 2022-10-15 00:36:59 | 显示全部楼层
thxxxxxxxxxxxxxxx
回复 支持 反对

使用道具 举报

主题

帖子

24

积分

新手上路

Rank: 1

积分
24
发表于 2022-10-15 15:28:50 来自手机 | 显示全部楼层
支持
回复

使用道具 举报

您需要登录后才可以回帖 登录 | 立即注册

本版积分规则

精彩图文
Archiver|手机版|TAG|Sitemap|新帖|专题|联系我们:邮箱: 4kjia.com@gmail.com   

4k家园   ©2019