[国家地理] [国家地理] 多洛米蒂山的白云岩(2021)[2160P/MKV/326MB]

  [复制链接]

主题

帖子

0

积分

超级版主

Rank: 8Rank: 8

积分
0
 楼主| 发表于 2022-10-12 19:20:09 | 显示全部楼层 |阅读模式
本帖最后由 叽里呱啦 于 2022-10-11 20:08 编辑

白云岩 (326MB)(2021) WEBRip 2160p.mkv_20221011_195826.405.jpg 白云岩 (326MB)(2021) WEBRip 2160p.mkv_20221011_195834.198.jpg 白云岩 (326MB)(2021) WEBRip 2160p.mkv_20221011_195932.173.jpg 白云岩 (326MB)(2021) WEBRip 2160p.mkv_20221011_195940.101.jpg 白云岩 (326MB)(2021) WEBRip 2160p.mkv_20221011_195945.486.jpg 白云岩 (326MB)(2021) WEBRip 2160p.mkv_20221011_195955.733.jpg

影片信息
片名:多洛米蒂山
上映年份: 2021
国家:意大利
持续时间: 00 : 03 : 14
类型: 物种
导演:埃利斯·范杰森

影片介绍:

       委内瑞拉之行后,我和朋友朱利安一起去了多洛米蒂山,除了天气恶劣,我们度过了愉快的时光和电影条件... 我想从一个新的角度展示白云岩,希望你喜欢它!
Video
ID                             : 1
Format                         : VP9
Codec ID                       : V_VP9
Duration                       : 3 min 14 s
Bit rate                       : 13.9 Mb/s
Width                          : 3 840 pixels
Height                         : 2 160 pixels
Display aspect ratio           : 16:9
Frame rate mode                : Constant
Frame rate                     : 29.970 FPS
Color space                    : YUV
Bits/(Pixel*Frame)             : 0.056
Stream size                    : 323 MiB (99%)
Default                        : Yes
Forced                         : No
Color range                    : Limited
Color primaries                : BT.709
Transfer characteristics       : BT.709
Matrix coefficients            : BT.709

Audio
ID                             : 2
Format                         : Opus
Codec ID                       : A_OPUS
Duration                       : 3 min 14 s
Bit rate                       : 136 kb/s
Channel(s)                     : 2 channels
Channel layout                 : L R
Sampling rate                  : 48.0 kHz
Frame rate                     : 50.001 FPS (960 SPF)
Bit depth                      : 32 bits
Compression mode               : Lossy
Stream size                    : 3.16 MiB (1%)
Default                        : Yes
Forced                         : No

下载地址:

游客,如果您要查看本帖隐藏内容请回复





上一篇:2019 首尔车展本田摩托车模型-余达妍 [2160P/MKV/151MB]
下一篇:[国家地理] 格罗德诺-皇家城市(2021)[2160P/MKV/525MB]
回复

使用道具 举报

30

主题

1337

帖子

4033

积分

4K家园VIP

Rank: 9Rank: 9Rank: 9

积分
4033
发表于 2022-10-12 19:20:13 | 显示全部楼层
无论是不是沙发都得回复下
回复 支持 反对

使用道具 举报

主题

帖子

38

积分

新手上路

Rank: 1

积分
38
发表于 2022-10-12 22:26:10 | 显示全部楼层
asdasdad
回复

使用道具 举报

主题

帖子

0

积分

新手上路

Rank: 1

积分
0
发表于 2022-10-13 14:44:27 | 显示全部楼层
谢谢分享
回复

使用道具 举报

28

主题

1295

帖子

3903

积分

4K家园VIP

Rank: 9Rank: 9Rank: 9

积分
3903
发表于 2022-10-14 03:11:01 | 显示全部楼层
为毛老子总也抢不到沙发?!!
回复 支持 反对

使用道具 举报

主题

帖子

15

积分

新手上路

Rank: 1

积分
15
发表于 2022-10-14 09:10:34 | 显示全部楼层
不错不错,就是时间是不是太短了
回复 支持 反对

使用道具 举报

1

主题

1429

帖子

4305

积分

4K家园VIP

Rank: 9Rank: 9Rank: 9

积分
4305
发表于 2022-10-18 01:07:54 | 显示全部楼层
不错 支持一个了
回复 支持 反对

使用道具 举报

主题

帖子

37

积分

新手上路

Rank: 1

积分
37
发表于 2022-10-19 15:45:23 | 显示全部楼层
感谢分享 非常喜欢
回复 支持 反对

使用道具 举报

主题

帖子

77

积分

新手上路

Rank: 1

积分
77
发表于 2022-10-19 22:19:36 | 显示全部楼层
asddasadasads
回复 支持 反对

使用道具 举报

主题

帖子

265

积分

新手上路

Rank: 1

积分
265
发表于 2022-10-21 17:45:30 | 显示全部楼层
rame rate                     : 46.875 FPS (1024 SPF)
Compression mode               : Lossy
回复 支持 反对

使用道具 举报

您需要登录后才可以回帖 登录 | 立即注册

本版积分规则

精彩图文
Archiver|手机版|TAG|Sitemap|新帖|专题|联系我们:邮箱: 4kjia.com@gmail.com   

4k家园   ©2019